<?xml version="1.0" standalone="no"?>
<!DOCTYPE svg PUBLIC "-//W3C//DTD SVG 1.1//EN" "http://www.w3.org/Graphics/SVG/1.1/DTD/svg11.dtd" >
<svg xmlns="http://www.w3.org/2000/svg">
<metadata>
<json>
<![CDATA[
{
	"fontFamily": "Linearicons-Free",
	"fontURL": "https://linearicons.com",
	"designerURL": "https://perxis.com",
	"license": "https://linearicons.com/free/license",
	"licenseURL": "https://linearicons.com/free/license",
	"description": "Designed by Perxis (https://perxis.com).\nFont generated by IcoMoon.",
	"copyright": "Copyright © 2015 Perxis.com. All Rights Reserved.",
	"majorVersion": 0,
	"version": "Version 1.0",
	"fontId": "Linearicons-Free",
	"psName": "Linearicons-Free",
	"subFamily": "Regular",
	"fullName": "Linearicons-Free"
}
]]>
</json>
</metadata>
<defs>
<font id="Linearicons-Free" horiz-adv-x="1024">
<font-face units-per-em="1024" ascent="972.950146627566" descent="-51.049853372434015" />
<missing-glyph horiz-adv-x="1024" />
<glyph unicode="&#x20;" horiz-adv-x="409.39980449657867" d="" />
<glyph unicode="&#xe003;" glyph-name="cart1" data-tags="cart" horiz-adv-x="921" d="M921.62 704v-608c0-89.6-72.412-160-164.572-160h-592.458c-92.16 0-164.571 70.4-164.571 160v608h197.486c0 140.8 118.491 256 263.314 256 144.821 0 263.313-115.2 263.313-256zM855.793 640h-131.661v-96c0-19.2-13.164-32-32.911-32s-32.916 12.8-32.916 32v96h-394.971v-96c0-19.2-13.166-32-32.914-32s-32.914 12.8-32.914 32v96h-131.657v-544c0-54.4 42.788-96 98.743-96h592.458c55.951 0 98.744 41.6 98.744 96zM263.333 704h394.971c0 105.6-88.868 192-197.485 192s-197.486-86.4-197.486-192z" />
<glyph unicode="&#xe005;" glyph-name="close" data-tags="close" d="M300.224 712.736l211.776-211.808 211.776 211.808c14.624 14.624 38.336 14.624 52.96 0s14.624-38.336 0-52.96l-211.808-211.776 211.808-211.776c14.624-14.624 14.624-38.336 0-52.96s-38.336-14.624-52.96 0l-211.776 211.808-211.776-211.808c-14.624-14.624-38.336-14.624-52.96 0s-14.624 38.336 0 52.96l211.808 211.776-211.808 211.776c-14.624 14.624-14.624 38.336 0 52.96s38.336 14.624 52.96 0z" />
<glyph unicode="&#xe007;" glyph-name="copy" data-tags="copy" horiz-adv-x="895" d="M867.882 828.118l-103.764 103.764c-17.373 17.373-41.372 28.118-67.882 28.118h-344.236c-53.020 0-96-42.98-96-96v-96h-160c-53.020 0-96-42.98-96-96v-640c0-53.020 42.98-96 96-96h448c53.020 0 96 42.98 96 96v96h160c53.020 0 96 42.98 96 96v536.236c0 26.51-10.745 50.509-28.118 67.882v0zM704 895.018c5.851-1.475 10.883-4.406 14.862-8.39v0l103.764-103.766c3.983-3.98 6.915-9.011 8.343-14.642l0.047-0.22h-127.016zM576 32c0-17.644-14.356-32-32-32h-448c-17.644 0-32 14.356-32 32v640c0 17.644 14.356 32 32 32h160v-480c0-53.020 42.98-96 96-96h224zM832 224c0-17.644-14.356-32-32-32h-448c-17.644 0-32 14.356-32 32v640c0 17.644 14.356 32 32 32h288v-144c0-26.4 21.6-48 48-48h144z" />
<glyph unicode="&#xe00a;" glyph-name="dropdown" data-tags="dropdown" d="M189.024 632.832l322.976-321.376 322.976 321.376c16.224 16.128 42.496 16.128 58.72 0s16.224-42.304 0-58.432l-352.32-350.592c-16.224-16.128-42.496-16.128-58.72 0l-352.32 350.592c-16.224 16.128-16.224 42.304 0 58.432s42.496 16.128 58.72 0z" />
<glyph unicode="&#xe00c;" glyph-name="favourite" data-tags="favourite" d="M721.984 876.896c154.784 0 282.4-135.808 284.544-302.656 0.352-32.192-3.936-63.68-12.8-93.664-14.912-75.616-109.216-185.024-287.232-330.816-68.416-56.384-124.096-98.368-165.504-124.608-6.816-4.32-14.624-6.528-22.4-6.528-6.944 0-13.888 1.728-20.192 5.184l-5.312 3.52-12.992 9.056c-31.072 21.568-103.744 72.128-151.904 109.344-184.8 143.872-279.2 247.584-297.152 326.496-8.64 25.984-13.696 57.376-14.048 89.632-1.152 85.664 31.232 168.384 88.768 226.88 52.384 53.28 121.152 82.816 193.6 83.104h0.032c81.728 0 156.032-33.088 209.632-90.656 52.608 59.712 126.816 94.592 207.584 95.712zM721.984 793.152l-4.16-0.064c-71.168-0.96-135.232-39.488-171.488-103.104-7.328-12.96-20.96-20.992-35.84-21.184-13.952 0.032-28.704 7.488-36.384 20.256-37.504 61.984-101.696 99.040-171.808 99.040-52.576-0.224-100.224-20.832-136.864-58.080-41.952-42.688-65.568-103.616-64.704-167.104 0.224-23.872 3.936-46.88 10.976-68.48 8.352-35.904 52.768-115.168 267.808-282.56 42.368-32.736 105.792-77.12 139.712-100.704 35.616 24.608 81.376 59.84 134.112 103.296 210.112 172.096 252.576 253.216 259.2 286.208 7.392 25.568 10.528 48.768 10.24 72.512-1.536 121.312-91.648 220-200.768 220zM718.944 730.272c77.984 0 139.936-69.344 140.992-157.92 0.288-17.184-2.016-34.176-6.816-50.4l-2.208-8.992c-2.048-9.888-10.752-16.672-20.448-16.672l-4.288 0.448c-11.392 2.368-18.592 13.472-16.256 24.768l3.008 12.064c3.616 12.416 5.344 25.216 5.152 38.24-0.8 65.408-44.32 116.608-99.040 116.608-11.584 0-20.96 9.376-20.96 20.928 0 11.584 9.28 20.96 20.864 20.96z" />
<glyph unicode="&#xe00f;" glyph-name="history1" data-tags="history" d="M309.343 533.336h-277.321c-17.664 0-31.999 14.336-31.999 31.998v277.331c0 17.664 14.336 31.999 31.999 31.999s31.999-14.336 31.999-31.999v-245.331h245.322c17.664 0 32-14.336 32-32 0-17.662-14.336-31.998-32-31.998zM778.668 416.009h-266.657c-17.664 0-32 14.336-32 32v266.659c0 17.664 14.336 31.999 32 31.999 17.662 0 31.998-14.336 31.998-31.999v-234.659h234.659c17.664 0 32-14.336 32-32s-14.336-32-32-32zM512.012-63.979c-136.96 0-265.512 53.327-361.853 150.223-12.5 12.546-12.414 32.812 0.086 45.272 12.547 12.414 32.812 12.5 45.265-0.086 84.311-84.741 196.692-131.409 316.503-131.409 247.033 0 447.991 200.955 447.991 447.991 0 247.033-200.958 447.99-447.991 447.99-210.683 0-399.485-142.38-448.937-338.517-4.352-17.147-22.015-27.515-38.866-23.203-17.148 4.352-27.515 21.711-23.25 38.907 56.569 224.127 271.479 386.811 511.053 386.811 282.314 0 511.988-229.675 511.988-511.988 0-282.324-229.674-511.991-511.988-511.991z" />
<glyph unicode="&#xe012;" glyph-name="live-support" data-tags="live-support" horiz-adv-x="991" d="M671.264 549.952v-195.808c0-95.904-77.728-173.632-173.632-173.632s-173.632 77.728-173.632 173.632v195.808c0 95.904 77.728 173.632 173.632 173.632s173.632-77.728 173.632-173.632zM279.68 549.952v-195.808c1.28-119.392 98.368-215.712 217.952-215.712s216.672 96.288 217.952 215.584v195.936c0 0.672 0 1.472 0 2.272 0 120.384-97.6 217.984-217.984 217.984s-217.984-97.6-217.984-217.984v-2.272zM140.672 665.792c-9.408 2.688-16.192 11.232-16.192 21.344 0 2.144 0.32 4.224 0.864 6.176l-0.032-0.16c44.928 159.52 194.784 266.592 371.712 266.592 216.192 0 385.376-157.888 385.376-367.712v-0.736c0-12.256-9.92-22.176-22.176-22.176s-22.176 9.92-22.176 22.176c0 0.256 0 0.512 0 0.768v-0.032c0 184.672-148.768 323.392-341.12 323.392-157.568 0-289.536-94.368-329.024-234.304-2.688-9.408-11.232-16.192-21.344-16.192-2.112 0-4.128 0.288-6.048 0.832l0.16-0.032zM541.6 54.88h-79.712c-32.864 0-59.488-26.624-59.488-59.488s26.624-59.488 59.488-59.488h79.712c0.608-0.032 1.344-0.032 2.048-0.032 32.864 0 59.488 26.624 59.488 59.488s-26.624 59.488-59.488 59.488c-0.736 0-1.44 0-2.144-0.032h0.096zM541.6-19.744h-79.712c-8.096 0.32-14.56 6.976-14.56 15.136s6.432 14.816 14.528 15.136h79.744c8.384 0 15.168-6.784 15.168-15.168s-6.784-15.168-15.168-15.168zM188.384 248.384c12.224 0 22.176 9.92 22.176 22.144v307.936s0 0 0 0.032c0 12.224-9.92 22.144-22.144 22.144h-74.528c-62.080 0-113.92-42.944-113.92-98.176v-156.032c0-55.232 51.808-98.176 113.92-98.176h74.496zM166.24 556.352v-263.616h-52.352c-39.232 0-69.568 25.12-69.568 53.824v156.032c0 28.736 30.336 53.856 69.568 53.856h52.352zM805.376 600.64c-12.224 0-22.144-9.92-22.144-22.144v-307.968c0-12.224 9.92-22.144 22.144-22.144h74.528c62.080 0 113.92 42.944 113.92 98.176v156.032c0 55.232-51.808 98.176-113.92 98.176h-74.528zM827.552 292.704v263.616h52.352c39.232 0 69.568-25.12 69.568-53.856v-156.032c0-28.736-30.336-53.824-69.568-53.824h-52.352zM552.096-1.248v-0.032c0 0.128 0 0.288 0 0.416 0 12.096 9.696 21.92 21.76 22.144 73.632 1.312 202.336 82.88 246.208 171.648l0.064 0.128c3.648 7.264 11.136 12.224 19.808 12.224 12.224 0 22.176-9.92 22.176-22.176 0-3.584-0.832-6.944-2.304-9.824-51.104-103.648-195.040-194.72-285.152-196.352h0.032c-0.128 0-0.256 0-0.416 0-12.096 0-21.952 9.696-22.176 21.792z" />
<glyph unicode="&#xe013;" glyph-name="location-1" data-tags="location-1" d="M594.178 245.802l152.988 245.998c0.499 0.795 0.917 1.632 1.244 2.5 26.364 42.872 40.337 92.209 40.368 142.539 0 150.733-122.633 273.365-273.366 273.365s-273.375-122.631-273.375-273.365c0-50.254 13.969-99.488 40.408-142.601 0.305-0.755 0.663-1.489 1.091-2.204l147.498-246.844c-114.499-16.184-189.794-63.265-189.794-120.376 0-70.765 120.255-126.184 273.764-126.184s273.762 55.427 273.762 126.184c0.011 57.375-78.795 105.508-194.589 120.988zM309.925 508.024c-24.316 38.567-37.238 83.222-37.276 128.815 0 133.856 108.898 242.753 242.764 242.753 133.857 0 242.753-108.897 242.753-242.753 0-45.479-12.887-90.019-37.265-128.815-0.51-0.817-0.928-1.663-1.264-2.54l-161.632-259.867c-2.429-3.724-2.909-4.57-5.877-9.448l-40.818-65.632-200.018 334.73c-0.363 0.962-0.819 1.885-1.367 2.756zM515.014 29.244c-143.293 0-243.151 50.376-243.151 95.57 0 41.020 75.204 79.672 176.357 91.641l49.693-83.173c2.745-4.581 7.662-7.408 13-7.448h0.131c5.287 0 10.204 2.734 13 7.224l52.244 83.999c102.765-11.133 181.867-50.764 181.867-92.242 0.009-45.205-99.847-95.57-243.142-95.57zM614.411 636.839c0 54.806-44.591 99.397-99.397 99.397s-99.397-44.591-99.397-99.397c0-54.804 44.591-99.397 99.397-99.397s99.397 44.593 99.397 99.397zM446.228 636.839c0 37.928 30.858 68.786 68.786 68.786s68.784-30.858 68.784-68.786c0-37.928-30.845-68.784-68.784-68.784s-68.786 30.856-68.786 68.784z" />
<glyph unicode="&#xe01a;" glyph-name="phone-plus" data-tags="phone-plus" d="M16 704h176v-176c0-8.8 7.2-16 16-16h32c8.8 0 16 7.2 16 16v176h176c8.8 0 16 7.2 16 16v32c0 8.8-7.2 16-16 16h-176v176c0 8.8-7.2 16-16 16h-32c-8.8 0-16-7.2-16-16v-176h-176c-8.8 0-16-7.2-16-16v-32c0-8.8 7.2-16 16-16zM975.616 911.808l-201.6 46.592c-29.408 6.784-59.616-8.416-71.616-36.192l-92.992-216.992c-11.008-25.408-3.616-55.392 17.792-72.992l107.808-88.192c-68-138.4-180.608-251.2-319.2-319.2l-88.192 107.808c-17.6 21.408-47.616 28.8-72.992 17.792l-216.8-92.992c-27.808-12-43.008-42.016-36.192-71.616l46.4-201.6c6.592-28.192 31.808-48.192 60.992-48.192 504.384 0 915.008 408.384 915.008 915.008 0 29.216-20 54.4-48.384 60.8zM110.208 0l-46.016 199.2 214.816 92 119.008-145.6c207.2 97.216 319.392 209.792 416.192 416.192l-145.6 119.008 92 214.816 199.2-46.016c-0.384-468.992-380.608-848.992-849.6-849.6z" />
<glyph unicode="&#xe01c;" glyph-name="rocket1" data-tags="rocket" d="M506.080 146.528c-5.472 0-10.912 2.080-15.104 6.24l-274.208 274.208c-8.032 8.032-8.352 20.864-0.864 29.312l205.536 230.24c143.648 168.064 377.6 276.832 581.6 273.376 11.392-0.256 20.576-9.44 20.832-20.832 4.736-204.128-105.248-437.92-273.76-581.888l-229.856-205.216c-4-3.616-9.12-5.408-14.176-5.408zM261.184 442.88l245.728-245.728 215.168 192.096c153.856 131.488 256.032 341.088 259.2 528-186.912-3.104-396.448-105.312-527.712-258.816zM587.776-9.632c-2.048 0-4.128 0.288-6.112 0.928-7.68 2.56-13.984 8.448-15.104 16.48l-29.28 204.256c-1.664 11.648 6.432 22.432 18.080 24.16 11.648 1.824 22.432-6.4 24.16-18.080l22.88-159.584c74.752 89.376 116.32 202.72 116.32 318.24 0 11.776 9.568 21.344 21.344 21.344s21.344-9.568 21.344-21.344c0-141.344-57.248-279.712-157.088-379.52-4.256-4.256-10.496-6.88-16.512-6.88zM279.104 473.088c-0.992 0-2.016 0.032-3.040 0.224l-204.256 29.28c-8.032 1.152-14.72 6.752-17.248 14.464-2.528 7.68-0.48 16.16 5.28 21.856 101.248 101.248 239.584 158.496 380.928 158.496 11.776 0 21.344-9.568 21.344-21.344s-9.568-21.344-21.344-21.344c-116.096 0-230.016-41.952-318.464-116.256l159.776-22.912c11.648-1.696 19.744-12.448 18.080-24.16-1.568-10.624-10.72-18.304-21.12-18.304zM731.008 560.384c-27.36 0-54.656 10.4-75.424 31.2-41.568 41.6-41.568 109.28 0 150.88 41.6 41.6 109.28 41.6 150.88 0 41.568-41.6 41.568-109.28 0-150.88-20.832-20.832-48.128-31.2-75.424-31.2zM731.008 730.976c-16.384 0-32.8-6.24-45.28-18.688-24.928-24.96-24.928-65.568 0-90.528 24.96-24.928 65.568-24.864 90.528 0 24.928 24.96 24.928 65.568 0 90.528-12.512 12.416-28.896 18.688-45.28 18.688zM791.328 606.624h0.416zM21.344-64c-5.6 0-11.008 2.176-15.104 6.24-5.536 5.536-7.584 13.696-5.344 21.216 7.008 23.328 69.664 229.6 115.328 275.232 51.424 51.424 135.072 51.456 186.496 0 51.424-51.424 51.424-135.072 0-186.496-45.664-45.664-251.904-108.32-275.232-115.328-2.048-0.544-4.096-0.864-6.144-0.864zM209.504 234.624c-22.88 0-45.696-8.704-63.104-26.080-24.608-24.672-65.568-134.784-92.64-218.784 83.968 27.040 194.144 68 218.752 92.64 34.784 34.784 34.784 91.392 0 126.176-17.376 17.376-40.192 26.080-63.008 26.080z" />
<glyph unicode="&#xe01d;" glyph-name="search" data-tags="search" d="M454.848 826.88c-173.024-0.032-313.792-140.864-313.856-313.984 0.064-172.928 140.8-313.696 313.792-313.696 173.12 0 313.984 140.768 313.984 313.792-0.064 173.088-140.864 313.888-313.888 313.888zM454.848 905.664c216.416 0 392.576-176.128 392.672-392.64 0-97.952-36.064-187.648-95.648-256.48l198.624-198.688c15.392-15.36 15.392-40.288 0-55.68-7.68-7.68-17.76-11.552-27.84-11.552s-20.16 3.872-27.84 11.552l-200.16 200.192c-66.4-51.328-149.632-81.92-239.872-81.92-216.352 0-392.48 176.096-392.544 392.48 0.064 216.544 176.192 392.704 392.64 392.736z" />
<glyph unicode="&#xe023;" glyph-name="user1" data-tags="user" horiz-adv-x="895" d="M627.2 384c-57.408 0-84.992-32-179.2-32s-121.6 32-179.2 32c-148.416 0-268.8-120.384-268.8-268.8v-83.2c0-52.992 43.008-96 96-96h704c52.992 0 96 43.008 96 96v83.2c0 148.384-120.384 268.8-268.8 268.8zM832 32c0-17.6-14.4-32-32-32h-704c-17.6 0-32 14.4-32 32v83.2c0 112.992 91.808 204.8 204.8 204.8 39.2 0 78.208-32 179.2-32 100.8 0 140 32 179.2 32 112.992 0 204.8-91.808 204.8-204.8zM448 448c141.408 0 256 114.592 256 256s-114.592 256-256 256-256-114.592-256-256 114.592-256 256-256zM448 896c105.792 0 192-86.208 192-192s-86.208-192-192-192-192 86.208-192 192 86.208 192 192 192z" />
<glyph unicode="&#xe029;" glyph-name="arrow-left1" data-tags="arrow-left" horiz-adv-x="895" d="M463.072 8.93l14.142 14.14c9.372 9.372 9.372 24.568 0 33.942l-356.988 356.988h751.774c13.254 0 24 10.746 24 24v20c0 13.254-10.746 24-24 24h-751.774l356.988 356.988c9.372 9.372 9.372 24.568 0 33.942l-14.142 14.14c-9.372 9.372-24.568 9.372-33.94 0l-422.102-422.1c-9.372-9.372-9.372-24.568 0-33.942l422.102-422.1c9.372-9.372 24.568-9.372 33.94 0.002z" />
<glyph unicode="&#xe02a;" glyph-name="arrow-right1" data-tags="arrow-right" horiz-adv-x="895" d="M432.928 887.070l-14.142-14.14c-9.372-9.372-9.372-24.568 0-33.942l356.988-356.988h-751.774c-13.254 0-24-10.746-24-24v-20c0-13.254 10.746-24 24-24h751.774l-356.988-356.988c-9.372-9.372-9.372-24.568 0-33.942l14.142-14.14c9.372-9.372 24.568-9.372 33.94 0l422.102 422.1c9.372 9.372 9.372 24.568 0 33.942l-422.102 422.098c-9.372 9.374-24.568 9.374-33.94 0z" />
<glyph unicode="&#xe02b;" glyph-name="bars" data-tags="bars" horiz-adv-x="895" d="M884 732h-872c-6.624 0-12 5.376-12 12v48c0 6.624 5.376 12 12 12h872c6.624 0 12-5.376 12-12v-48c0-6.624-5.376-12-12-12zM884 412h-872c-6.624 0-12 5.376-12 12v48c0 6.624 5.376 12 12 12h872c6.624 0 12-5.376 12-12v-48c0-6.624-5.376-12-12-12zM884 92h-872c-6.624 0-12 5.376-12 12v48c0 6.624 5.376 12 12 12h872c6.624 0 12-5.376 12-12v-48c0-6.624-5.376-12-12-12z" />
<glyph unicode="&#xe02c;" glyph-name="calendar" data-tags="calendar" horiz-adv-x="895" d="M800 832h-96v104c0 13.248-10.752 24-24 24h-16c-13.248 0-24-10.752-24-24v-104h-384v104c0 13.248-10.752 24-24 24h-16c-13.248 0-24-10.752-24-24v-104h-96c-53.024 0-96-42.976-96-96v-704c0-53.024 42.976-96 96-96h704c53.024 0 96 42.976 96 96v704c0 53.024-42.976 96-96 96zM96 768h704c17.632 0 32-14.368 32-32v-96h-768v96c0 17.632 14.368 32 32 32zM800 0h-704c-17.632 0-32 14.368-32 32v544h768v-544c0-17.632-14.368-32-32-32z" />
<glyph unicode="&#xe034;" glyph-name="comment" data-tags="comment" d="M512 832c247 0 448-158 448-352s-201-352-448-352c-56.6 0-112.6 8.6-166.4 25.6l-30.4 9.6-26-18.4c-46-32.6-117-70.6-205.2-79.2 24 30.2 59.6 80.8 81.6 139.2l14.2 37.4-27.4 29.2c-57.8 61.2-88.4 133.4-88.4 208.6 0 194 201 352 448 352M512 896c-282.8 0-512-186.2-512-416 0-95.2 39.8-182.4 105.8-252.6-29.8-78.8-91.8-145.6-92.8-146.4-13.2-14-16.8-34.4-9.2-52s24.8-29 44-29c123 0 220 51.4 278.2 92.6 58-18.2 120.4-28.6 186-28.6 282.8 0 512 186.2 512 416s-229.2 416-512 416z" />
<glyph unicode="&#xe035;" glyph-name="comments" data-tags="comments" horiz-adv-x="1152" d="M1139.8 77.8c-1 0.8-45.2 48.4-75.8 109.8 55 54.2 88 122.2 88 196.4 0 160-153 292.2-352.4 315.8-62.8 115.2-211 196.2-383.6 196.2-229.8 0-416-143.2-416-320 0-74 33-142 88-196.4-30.6-61.4-74.6-109-75.4-109.8-12.6-13.4-16.2-33-8.8-50 7.2-17 24-28 42.4-28 107 0 193.4 40.4 250.4 77.6 18.2-4.2 36.8-7.4 56-9.6 63-115 211-196 383.6-196 41.6 0 81.6 4.8 119.6 13.6 57-37 143.2-77.6 250.4-77.6 18.4 0 35 11 42.4 28 7.2 17 3.8 36.6-8.8 50zM310.8 332l-26.4 6-22.8-14.8c-40.2-26.2-101-56.4-175.4-65 17.6 22.6 40.4 55.2 59 92.8l20.8 41.6-33 32.6c-31.6 31-69 82.4-69 150.8 0 141.2 158 256 352 256s352-114.8 352-256-158-256-352-256c-35.4 0-70.8 4-105.2 12zM890.4 131.2l-22.8 14.8-26.4-6.2c-34.4-8-69.8-12-105.2-12-130.2 0-244 51.8-304.8 128.6 222.6 6.4 400.8 146.8 400.8 319.6 0 19-2.6 37.4-6.6 55.4 150.8-29 262.6-128.8 262.6-247.4 0-68.4-37.4-119.8-69-150.8l-33-32.6 20.6-41.4c18.8-37.8 41.6-70.4 59-92.8-74.2 8.4-135 38.8-175.2 64.8z" />
<glyph unicode="&#xe037;" glyph-name="envelope1" data-tags="envelope" d="M928 832h-832c-53 0-96-43-96-96v-576c0-53 43-96 96-96h832c53 0 96 43 96 96v576c0 53-43 96-96 96zM96 768h832c17.6 0 32-14.4 32-32v-82.8c-43.8-37-106.4-88-301.2-242.6-33.8-26.8-100.4-91.4-146.8-90.6-46.4-0.8-113.2 63.8-146.8 90.6-194.8 154.6-257.4 205.6-301.2 242.6v82.8c0 17.6 14.4 32 32 32zM928 128h-832c-17.6 0-32 14.4-32 32v410c45.6-37.4 117.6-95.2 261.4-209.4 41-32.8 113.4-105 186.6-104.6 72.8-0.6 144.6 71 186.6 104.6 143.8 114.2 215.8 172 261.4 209.4v-410c0-17.6-14.4-32-32-32z" />
<glyph unicode="&#xe039;" glyph-name="external-link-alt" data-tags="external-link-alt" horiz-adv-x="1152" d="M1088 960h-0.112l-192.334-0.334c-56.884-0.098-85.32-69.078-45.144-109.254l70.544-70.544-593.924-593.928c-9.372-9.372-9.372-24.568 0-33.94l16.968-16.97c9.374-9.372 24.57-9.372 33.942 0l593.928 593.928 70.544-70.544c40.046-40.046 109.156-11.96 109.254 45.144l0.334 192.332c0.060 35.404-28.65 64.11-64 64.11zM1087.666 703.666l-192 192 192.334 0.334zM896 504.638v-472.638c0-53.020-42.98-96-96-96h-704c-53.020 0-96 42.98-96 96v704c0 53.020 42.98 96 96 96h647.952c6.366 0 12.47-2.528 16.97-7.030l16-16c15.12-15.12 4.412-40.97-16.97-40.97h-663.952c-17.674 0-32-14.326-32-32v-704c0-17.674 14.326-32 32-32h704c17.674 0 32 14.326 32 32v456.64c0 6.366 2.528 12.47 7.030 16.97l16 16c15.118 15.118 40.97 4.41 40.97-16.972z" />
<glyph unicode="&#xe03a;" glyph-name="eye1" data-tags="eye" horiz-adv-x="1152" d="M576 384c70.692 0 128 57.308 128 128s-57.308 128-128 128v0c-2 0-3.76-0.48-5.7-0.58 3.613-9.645 5.705-20.791 5.705-32.425 0-52.467-42.533-95-95-95-11.634 0-22.78 2.091-33.082 5.919l0.657-0.214c0-2-0.58-3.76-0.58-5.7 0-70.692 57.308-128 128-128v0zM1145.040 477.2c-108.46 211.62-323.18 354.8-569.040 354.8s-460.64-143.28-569.040-354.82c-4.387-8.495-6.959-18.542-6.959-29.19s2.572-20.695 7.129-29.553l-0.17 0.363c108.46-211.62 323.18-354.8 569.040-354.8s460.64 143.28 569.040 354.82c4.387 8.495 6.959 18.542 6.959 29.19s-2.572 20.695-7.129 29.553l0.17-0.363zM576 768c141.385 0 256-114.615 256-256s-114.615-256-256-256c-141.385 0-256 114.615-256 256v0c0.159 141.321 114.679 255.841 255.985 256h0.015zM576 128c-214.72 0-410.92 122.62-512 320 57.931 112.088 147.223 201.090 256.246 257.113l3.314 1.547c-41.74-54.040-67.56-121-67.56-194.66 0-176.731 143.269-320 320-320s320 143.269 320 320v0c0 73.66-25.82 140.62-67.56 194.66 112.336-57.569 201.628-146.571 258.012-255.376l1.548-3.284c-101.060-197.38-297.28-320-512-320z" />
<glyph unicode="&#xe03b;" glyph-name="file-alt" data-tags="file-alt" horiz-adv-x="767" d="M739.8 764.2l-167.8 167.8c-18 18-42.4 28.2-67.8 28.2h-408.2c-53-0.2-96-43.2-96-96.2v-832c0-53 43-96 96-96h576c53 0 96 43 96 96v664.2c0 25.4-10.2 50-28.2 68zM694.6 718.8c4.2-4.2 7-9.2 8.4-14.8h-191v191c5.6-1.4 10.6-4.2 14.8-8.4zM672 0h-576c-17.6 0-32 14.4-32 32v832c0 17.6 14.4 32 32 32h352v-208c0-26.6 21.4-48 48-48h208v-608c0-17.6-14.4-32-32-32zM576 488v-16c0-13.2-10.8-24-24-24h-336c-13.2 0-24 10.8-24 24v16c0 13.2 10.8 24 24 24h336c13.2 0 24-10.8 24-24zM576 360v-16c0-13.2-10.8-24-24-24h-336c-13.2 0-24 10.8-24 24v16c0 13.2 10.8 24 24 24h336c13.2 0 24-10.8 24-24zM576 232v-16c0-13.2-10.8-24-24-24h-336c-13.2 0-24 10.8-24 24v16c0 13.2 10.8 24 24 24h336c13.2 0 24-10.8 24-24z" />
<glyph unicode="&#xe03c;" glyph-name="file-archive" data-tags="file-archive" horiz-adv-x="767" d="M256 768v-64h64v64zM387.8 428.8c-2.2 11.2-12 19.2-23.6 19.2h-44.2v64h-64v-64l-38.8-194.4c-13-65 36.6-125.6 102.8-125.6s115.8 60.6 102.8 125.6zM320.6 179.8c-35.8 0-64.8 24.2-64.8 54s29 54 64.8 54 64.8-24.2 64.8-54-29-54-64.8-54zM256 640v-64h64v64zM384 832h-64v-64h64zM739.8 764.2l-167.8 167.8c-18 18-42.4 28.2-67.8 28.2h-408.2c-53-0.2-96-43.2-96-96.2v-832c0-53 43-96 96-96h576c53 0 96 43 96 96v664.2c0 25.4-10.2 50-28.2 68zM512 895c5.6-1.4 10.8-4.2 14.8-8.4l167.8-167.8c4-4 7-9.2 8.4-14.8h-191zM704 32c0-17.6-14.4-32-32-32h-576c-17.6 0-32 14.4-32 32v832c0 17.6 14.4 32 32 32h159.4v-64h64v64h128.6v-208c0-26.6 21.4-48 48-48h208zM384 576h-64v-64h64zM384 704h-64v-64h64z" />
<glyph unicode="&#xe03d;" glyph-name="folder-open" data-tags="folder-open" horiz-adv-x="1152" d="M1055.9 512h-95.9v96c0 53.020-42.98 96-96 96h-320l-128 128h-320c-53.020 0-96-42.98-96-96v-576c0-53.020 42.98-96 96-96h770.114c56.136 0 108.27 29.466 137.198 77.68l134.906 224.928c38.262 63.768-7.648 145.392-82.318 145.392zM96 768h293.49l128-128h346.51c17.674 0 32-14.326 32-32v-96h-553.646c-56.136 0-108.27-29.466-137.198-77.68l-141.156-235.26v536.94c0 17.674 14.326 32 32 32zM1083.39 399.536l-134.958-224.928c-17.080-28.114-47.538-46.608-82.316-46.608-0.001 0-0.002 0-0.002 0h-776.468l164.034 273.392c17.082 28.114 47.541 46.608 82.319 46.608 0 0 0.001 0 0.001 0h719.95c24.874 0 40.238-27.136 27.44-48.464z" />
<glyph unicode="&#xe03e;" glyph-name="folder" data-tags="folder" d="M389.48 768l109.26-109.26c12-12 28.28-18.74 45.26-18.74h384c17.68 0 32-14.32 32-32v-448c0-17.68-14.32-32-32-32h-832c-17.68 0-32 14.32-32 32v576c0 17.68 14.32 32 32 32zM96 832c-53.020 0-96-42.98-96-96v-576c0-53.020 42.98-96 96-96h832c53.020 0 96 42.98 96 96v448c0 53.020-42.98 96-96 96h-384l-109.26 109.26c-12 12-28.28 18.74-45.26 18.74z" />
<glyph unicode="&#xe040;" glyph-name="gift1" data-tags="gift" d="M928 672h-78.6c19 26.8 30.6 59.8 30.6 96 0 88.2-66.8 160-149 160-84.6 0-133.6-50.8-219-191.6-85.4 140.8-134.4 191.6-219 191.6-82.2 0-149-71.8-149-160 0-36.2 11.6-69.2 30.6-96h-78.6c-53 0-96-43-96-96v-192c0-17.6 14.4-32 32-32h32v-288c0-53 43-96 96-96h704c53 0 96 43 96 96v288h32c17.6 0 32 14.4 32 32v192c0 53-43 96-96 96zM552.4 679.2c99 166.6 132 184.8 178.6 184.8 46.8 0 85-43 85-96s-38.2-96-85-96h-183zM293 864c46.8 0 79.6-18.2 178.6-184.8l4.2-7.2h-183c-46.8 0-85 43-85 96 0.2 53 38.4 96 85.2 96zM384 32h-224c-17.6 0-32 14.4-32 32v288h256zM384 416h-320v160c0 17.6 14.4 32 32 32h288zM576 32h-128v576h128zM896 64c0-17.6-14.4-32-32-32h-224v320h256zM960 416h-320v192h288c17.6 0 32-14.4 32-32z" />
<glyph unicode="&#xe041;" glyph-name="grid" data-tags="grid" d="M960-64h-320q-27 0-45.5 18.5t-18.5 45.5v320q0 27 18.5 45.5t45.5 18.5h320q27 0 45.5-18.5t18.5-45.5v-320q0-27-18.5-45.5t-45.5-18.5zM960 320h-320v-320h320zM960 512h-320q-27 0-45.5 18.5t-18.5 45.5v320q0 27 18.5 45.5t45.5 18.5h320q27 0 45.5-18.5t18.5-45.5v-320q0-27-18.5-45.5t-45.5-18.5zM960 896h-320v-320h320zM384-64h-320q-27 0-45.5 18.5t-18.5 45.5v320q0 27 18.5 45.5t45.5 18.5h320q27 0 45.5-18.5t18.5-45.5v-320q0-27-18.5-45.5t-45.5-18.5zM384 320h-320v-320h320zM384 512h-320q-27 0-45.5 18.5t-18.5 45.5v320q0 27 18.5 45.5t45.5 18.5h320q27 0 45.5-18.5t18.5-45.5v-320q0-27-18.5-45.5t-45.5-18.5zM384 896h-320v-320h320z" />
<glyph unicode="&#xe042;" glyph-name="heart-fill" data-tags="heart-fill" d="M924.6 834.8c-109.6 93.4-272.6 76.6-373.2-27.2l-39.4-40.6-39.4 40.6c-100.4 103.8-263.6 120.6-373.2 27.2-125.6-107.2-132.2-299.6-19.8-415.8l387-399.6c25-25.8 65.6-25.8 90.6 0l387 399.6c112.6 116.2 106 308.6-19.6 415.8z" />
<glyph unicode="&#xe043;" glyph-name="heart1" data-tags="heart" d="M924.608 834.592c-108.992 92.8-272 77.408-373.184-27.008l-39.392-40.8-39.392 40.608c-81.6 84.416-246.208 135.2-373.184 27.2-125.6-107.2-132.192-299.616-19.808-415.616l387.008-399.616c12.384-12.8 28.8-19.392 45.184-19.392s32.8 6.4 45.184 19.392l387.008 399.616c112.8 116 106.208 308.384-19.392 415.616zM898.4 463.392l-385.6-399.616-387.2 399.616c-76.8 79.2-92.8 230.208 15.392 322.4 109.6 93.6 238.4 25.792 285.6-23.008l85.408-88.192 85.408 88.192c46.4 48 176.384 116 285.6 23.008 108-92 92.192-243.008 15.392-322.4z" />
<glyph unicode="&#xe044;" glyph-name="home1" data-tags="home" horiz-adv-x="1152" d="M1082 501.68l-122 99.66v154.8c0 6.627-5.373 12-12 12v0h-40c-6.627 0-12-5.373-12-12v0-102.66l-279.62 228.24c-10.938 8.878-25.031 14.255-40.38 14.255s-29.442-5.376-40.499-14.349l0.119 0.094-465.62-380.040c-3.608-2.957-5.892-7.413-5.892-12.403 0-3.833 1.348-7.351 3.595-10.106l-0.023 0.029 20.2-24.82c2.957-3.606 7.412-5.889 12.401-5.889 3.798 0 7.286 1.323 10.030 3.533l-0.031-0.024 81.72 66.76v-486c0-17.673 14.327-32 32-32v0h256c17.673 0 32 14.327 32 32v0 256l128-0.6v-256.16c0-17.673 14.327-32 32-32v0l256 0.66c17.673 0 32 14.327 32 32v0 486.1l81.72-66.76c2.728-2.23 6.251-3.582 10.089-3.582 4.994 0 9.454 2.288 12.388 5.873l0.023 0.028 20.2 24.82c2.218 2.724 3.562 6.237 3.562 10.065 0 5.030-2.321 9.519-5.952 12.452l-0.030 0.024zM895.78 64.5h0.2l-192-0.6v256.34c-0.056 17.615-14.293 31.887-31.889 32h-0.011l-192 0.54c-0.030 0-0.065 0-0.1 0-17.673 0-32-14.327-32-32 0 0 0 0 0 0v0-256.28h-191.98v506.48l320 261.14 320-261.14z" />
<glyph unicode="&#xe047;" glyph-name="list1" data-tags="list" horiz-adv-x="1177" d="M110.4 521.143h-73.6q-14.95 0-25.875-10.857t-10.925-25.714v-73.143q0-14.857 10.925-25.714t25.875-10.857h73.6q14.95 0 25.875 10.857t10.925 25.714v73.143q0 14.857-10.925 25.714t-25.875 10.857zM1140.8 484.571h-772.8q-14.95 0-25.875-10.857t-10.925-25.714 10.925-25.714 25.875-10.857h772.8q14.95 0 25.875 10.857t10.925 25.714-10.925 25.714-25.875 10.857zM110.4 228.571h-73.6q-14.95 0-25.875-10.857t-10.925-25.714v-73.143q0-14.857 10.925-25.714t25.875-10.857h73.6q14.95 0 25.875 10.857t10.925 25.714v73.143q0 14.857-10.925 25.714t-25.875 10.857zM1140.8 192h-772.8q-14.95 0-25.875-10.857t-10.925-25.714 10.925-25.714 25.875-10.857h772.8q14.95 0 25.875 10.857t10.925 25.714-10.925 25.714-25.875 10.857zM110.4 813.714h-73.6q-14.95 0-25.875-10.857t-10.925-25.714v-73.143q0-14.857 10.925-25.714t25.875-10.857h73.6q14.95 0 25.875 10.857t10.925 25.714v73.143q0 14.857-10.925 25.714t-25.875 10.857zM368 704h772.8q14.95 0 25.875 10.857t10.925 25.714-10.925 25.714-25.875 10.857h-772.8q-14.95 0-25.875-10.857t-10.925-25.714 10.925-25.714 25.875-10.857z" />
<glyph unicode="&#xe04c;" glyph-name="map-marker-check" data-tags="map-marker-check" horiz-adv-x="767" d="M384 960c-211.2 0-384-172.8-384-384 0-153.6 51.2-198.4 345.6-620.8 9.6-12.8 24-19.2 38.4-19.2s28.8 6.4 38.4 19.2c294.4 422.4 345.6 467.2 345.6 620.8 0 211.2-172.8 384-384 384zM384.032 12c-39.328 56.352-74.176 105.696-104.992 149.376-193.76 274.688-215.040 308.384-215.040 414.624 0 176.448 143.552 320 320 320s320-143.552 320-320c0-106.208-21.28-139.936-215.040-414.624-31.040-44.032-66.176-93.856-104.928-149.376zM562.688 691.072c-2.88 2.88-6.88 4.672-11.296 4.672h-0.032c-4.096 0-8.192-1.568-11.328-4.672l-214.976-214.944-97.152 97.152c-2.88 2.88-6.88 4.672-11.296 4.672h-0.032c-4.096 0-8.192-1.568-11.328-4.672l-22.624-22.624c-6.24-6.24-6.24-16.384 0-22.624l131.072-131.072c3.136-3.136 7.232-4.672 11.328-4.672s8.192 1.568 11.296 4.672l248.896 248.896c6.24 6.24 6.24 16.384 0 22.624l-22.592 22.624z" />
<glyph unicode="&#xe04d;" glyph-name="meh" data-tags="meh" horiz-adv-x="991" d="M496 944c-274 0-496-222-496-496s222-496 496-496 496 222 496 496-222 496-496 496zM496 16c-238.2 0-432 193.8-432 432s193.8 432 432 432 432-193.8 432-432-193.8-432-432-432zM336 480c35.4 0 64 28.6 64 64s-28.6 64-64 64-64-28.6-64-64 28.6-64 64-64zM656 608c-35.4 0-64-28.6-64-64s28.6-64 64-64 64 28.6 64 64-28.6 64-64 64zM688 288h-384c-17.6 0-32-14.4-32-32s14.4-32 32-32h384c17.6 0 32 14.4 32 32s-14.4 32-32 32z" />
<glyph unicode="&#xe04e;" glyph-name="minus" data-tags="minus" horiz-adv-x="767" d="M752 496h-736c-8.84 0-16-7.16-16-16v-64c0-8.84 7.16-16 16-16h736c8.84 0 16 7.16 16 16v64c0 8.84-7.16 16-16 16z" />
<glyph unicode="&#xe051;" glyph-name="plus" data-tags="plus" horiz-adv-x="767" d="M736 512h-288v288c0 17.68-14.32 32-32 32h-64c-17.68 0-32-14.32-32-32v-288h-288c-17.68 0-32-14.32-32-32v-64c0-17.68 14.32-32 32-32h288v-288c0-17.68 14.32-32 32-32h64c17.68 0 32 14.32 32 32v288h288c17.68 0 32 14.32 32 32v64c0 17.68-14.32 32-32 32z" />
<glyph unicode="&#xe052;" glyph-name="quote" data-tags="quote" horiz-adv-x="1075" d="M937.94 960c40.371-27.499 72.666-65.998 96.888-115.496 26.913-49.499 40.371-115.496 40.371-197.993 0-120.996-26.913-244.744-80.74-371.238-53.829-123.748-125.151-236.493-213.965-338.24-21.53-2.749-48.445 0-80.74 8.248-32.297 8.251-57.866 19.251-76.705 33.001 43.062 60.498 79.396 129.244 109 206.244 32.297 76.997 48.445 142.994 48.445 197.993 0 52.247-13.455 97.623-40.371 136.12-24.22 38.5-69.975 60.498-137.26 65.999-2.691 35.748-1.344 79.747 4.037 131.995 5.384 52.248 14.804 93.497 28.26 123.746 113.037 19.25 213.965 59.123 302.779 119.621zM340.457 947.626c43.062-27.499 76.705-65.998 100.928-115.496 24.22-49.498 36.332-115.496 36.332-197.994 0-120.996-26.913-240.617-80.74-358.863s-123.804-228.244-209.927-329.992c-24.222-2.749-52.482 0-84.778 8.251-29.605 8.248-53.827 19.249-72.667 32.998 40.37 60.498 76.704 127.872 109 202.12s48.444 138.87 48.444 193.869c0 52.247-14.802 97.623-44.407 136.12-26.914 38.5-74.013 60.498-141.297 65.999-2.691 35.748-1.346 76.997 4.037 123.745 5.383 49.498 14.802 89.372 28.259 119.622 56.519 10.999 111.692 26.124 165.519 45.373s100.927 43.998 141.296 74.248z" />
<glyph unicode="&#xe053;" glyph-name="random" data-tags="random" d="M0 704v16c0 13.2 10.8 24 24 24h211.6c6.6 0 13-2.8 17.6-7.8l179.4-194-43.6-47.2-171 185h-194c-13.2 0-24 10.8-24 24zM1005.2 146.8l-128-128c-40.2-40.2-109.2-11.6-109.2 45.2v88h-51.4c-6.6 0-13 2.8-17.6 7.8l-179.4 194 43.6 47.2 170.8-185h34v104c0 57 69 85.4 109.2 45.2l128-128c25-25 25-65.4 0-90.4zM965.6 197.6l-128 128c-5 5-13.6 1.4-13.6-5.6v-256c0-7.2 8.6-10.8 13.6-5.6l128 128c3.2 3 3.2 8.2 0 11.2zM1005.2 658.8l-128-128c-40.2-40.2-109.2-11.6-109.2 45.2v104h-34l-480.8-520.2c-4.6-5-11-7.8-17.6-7.8h-211.6c-13.2 0-24 10.8-24 24v16c0 13.2 10.8 24 24 24h194l480.8 520.2c4.6 5 11 7.8 17.6 7.8h51.6v88c0 57 69 85.4 109.2 45.2l128-128c25-25 25-65.4 0-90.4zM965.6 709.6l-128 128c-5 5-13.6 1.4-13.6-5.6v-256c0-7.2 8.6-10.8 13.6-5.6l128 128c3.2 3 3.2 8.2 0 11.2z" />
<glyph unicode="&#xe057;" glyph-name="shopping-cart" data-tags="shopping-cart" horiz-adv-x="1152" d="M1103.982 832h-845.422l-16.658 88.846c-4.258 22.702-24.080 39.154-47.178 39.154h-170.724c-13.254 0-24-10.746-24-24v-16c0-13.254 10.746-24 24-24h157.44l139.854-745.892c-20.684-22.736-33.294-52.948-33.294-86.108 0-70.692 57.308-128 128-128s128 57.308 128 128c0 0.042 0 0.092 0 0.141 0 23.519-6.375 45.549-17.491 64.456l0.325-0.597h290.334c-10.791-18.31-17.166-40.34-17.166-63.859 0-0.050 0-0.099 0-0.149v0.008c0-70.692 57.308-128 128-128s128 57.308 128 128c0 35.986-14.87 68.48-38.776 91.736-5.182 20.482-23.706 36.264-46.57 36.264h-592.096l-24 128h662.762c22.736 0 42.354 15.952 46.992 38.21l86.662 416c6.208 29.808-16.546 57.79-46.994 57.79zM480 64c0-35.29-28.71-64-64-64s-64 28.71-64 64 28.71 64 64 64 64-28.71 64-64zM928 0c-35.29 0-64 28.71-64 64s28.71 64 64 64 64-28.71 64-64-28.71-64-64-64zM1004.312 384h-661.752l-72 384h813.752z" />
<glyph unicode="&#xe058;" glyph-name="sign-out-alt" data-tags="sign-out-alt" d="M320 525.8c0 17.6 14.4 32 32 32h288v187.8c0 14.2 17.2 21.4 27.2 11.4l283.2-286.2c12.6-12.6 12.6-32.8 0-45.4l-283.2-286.2c-10-10-27.2-3-27.2 11.4v187.8h-288c-17.6 0-32 14.4-32 32zM256 525.8v-155.4c0-53 43-96 96-96h224v-123.8c0-71 86-107 136.4-56.6l283.4 286c37.6 37.6 37.6 98.4 0 136l-283.4 286.2c-50.2 50.2-136.4 14.6-136.4-56.6v-123.8h-224c-53 0-96-43.2-96-96zM0 736v-576c0-53 43-96 96-96h264c13.2 0 24 10.8 24 24v16c0 13.2-10.8 24-24 24h-264c-17.6 0-32 14.4-32 32v576c0 17.6 14.4 32 32 32h264c13.2 0 24 10.8 24 24v16c0 13.2-10.8 24-24 24h-264c-53 0-96-43-96-96z" />
<glyph unicode="&#xe059;" glyph-name="smile1" data-tags="smile" horiz-adv-x="991" d="M496 944c-274 0-496-222-496-496s222-496 496-496 496 222 496 496-222 496-496 496zM496 16c-238.2 0-432 193.8-432 432s193.8 432 432 432 432-193.8 432-432-193.8-432-432-432zM676.4 308.4c-44.8-53.6-110.6-84.4-180.4-84.4s-135.6 30.8-180.4 84.4c-11.4 13.6-31.6 15.4-45 4-13.6-11.4-15.4-31.4-4-45 56.8-68.2 140.6-107.4 229.4-107.4s172.6 39.2 229.6 107.6c11.4 13.6 9.6 33.8-4 45s-33.8 9.4-45.2-4.2zM336 480c35.4 0 64 28.6 64 64s-28.6 64-64 64-64-28.6-64-64 28.6-64 64-64zM656 480c35.4 0 64 28.6 64 64s-28.6 64-64 64-64-28.6-64-64 28.6-64 64-64z" />
<glyph unicode="&#xe05a;" glyph-name="spinner" data-tags="spinner" d="M576 896c0-35.346-28.654-64-64-64s-64 28.654-64 64 28.654 64 64 64 64-28.654 64-64zM512 64c-35.346 0-64-28.654-64-64s28.654-64 64-64 64 28.654 64 64-28.654 64-64 64zM1024 448c0 35.346-28.654 64-64 64s-64-28.654-64-64 28.654-64 64-64 64 28.654 64 64zM128 448c0 35.346-28.654 64-64 64s-64-28.654-64-64 28.654-64 64-64 64 28.654 64 64zM195.216 195.216c-35.346 0-64-28.654-64-64s28.654-64 64-64 64 28.654 64 64-28.654 64-64 64zM828.784 195.216c-35.346 0-64-28.654-64-64s28.654-64 64-64 64 28.654 64 64-28.654 64-64 64zM195.216 828.784c-35.346 0-64-28.654-64-64s28.654-64 64-64 64 28.654 64 64-28.654 64-64 64z" />
<glyph unicode="&#xe05b;" glyph-name="square" data-tags="square" horiz-adv-x="895" d="M800 896h-704c-53 0-96-43-96-96v-704c0-53 43-96 96-96h704c53 0 96 43 96 96v704c0 53-43 96-96 96zM832 96c0-17.6-14.4-32-32-32h-704c-17.6 0-32 14.4-32 32v704c0 17.6 14.4 32 32 32h704c17.6 0 32-14.4 32-32z" />
<glyph unicode="&#xe05c;" glyph-name="star1" data-tags="star" horiz-adv-x="1152" d="M1056.2 617l-292.2 42.6-130.6 264.8c-23.4 47.2-91.2 47.8-114.8 0l-130.6-264.8-292.2-42.6c-52.4-7.6-73.4-72.2-35.4-109.2l211.4-206-50-291c-9-52.6 46.4-92 92.8-67.4l261.4 137.4 261.4-137.4c46.4-24.4 101.8 14.8 92.8 67.4l-50 291 211.4 206c38 37 17 101.6-35.4 109.2zM811.6 324.2l55.6-324-291.2 152.8-291-153 55.6 324-235.6 229.8 325.4 47.2 145.6 295 145.6-295 325.4-47.2z" />
<glyph unicode="&#xe05d;" glyph-name="store1" data-tags="store" horiz-adv-x="1232" d="M1204 722.8l-129.8 207.2c-11.6 18.6-32.2 30-54.2 30h-808c-22 0-42.6-11.4-54.2-30l-129.8-207.2c-59.2-94.4-20-221.2 76-261.6v-454.8c0-38.8 28.6-70.4 64-70.4h896c35.4 0 64 31.6 64 70.4v454.8c96 40.4 135.2 167.2 76 261.6zM1064 6.4c0-4-1.6-6.2-0.4-6.4l-893.2-0.6c-0.6 0.4-2.4 2.6-2.4 7v249.6h896zM168 320v128h5c59.2 0 111.6 26 147.6 66.2 36-40.2 88.6-66.2 147.6-66.2 59.2 0 111.6 26 147.6 66.2 36-40.2 88.6-66.2 147.6-66.2 59.2 0 111.6 26 147.6 66.2 36.2-40.2 88.6-66.2 147.8-66.2h5v-128zM1156.4 573c-15.6-33.2-44.2-55-78.6-59.6-6.2-0.8-12.4-1.2-18.8-1.2-38.6 0-74 16-100 45l-47.6 52.8-47.6-53.2c-26-29-61.4-45-100-45s-74 16-100 45l-47.8 53.2-47.6-53.2c-26-29-61.4-45-100-45s-74 16-100 45l-47.8 53.2-47.6-53.2c-26-29-61.4-45-100-45-6.4 0-12.6 0.4-18.8 1.2-34.4 4.6-63 26.4-78.6 59.6-17.4 37.2-15 81.6 6.6 115.8l129.8 207.6h808l129.8-207.2c21.6-34.4 24-78.6 6.6-115.8z" />
<glyph unicode="&#xe05e;" glyph-name="sync1" data-tags="sync" d="M984 944h-20c-13.254 0-24-10.746-24-24v-221.254c-86.142 146.732-245.552 245.254-428 245.254-265.544 0-482.352-208.676-495.38-470.986-0.678-13.636 10.33-25.014 23.982-25.014h20.032c12.706 0 23.292 9.898 23.954 22.586 11.726 224.982 197.606 405.414 427.412 405.414 165.724 0 309.474-94.154 380.578-232h-228.578c-13.254 0-24-10.746-24-24v-20c0-13.254 10.746-24 24-24h320c13.254 0 24 10.746 24 24v320c0 13.254-10.746 24-24 24zM983.398 448h-20.030c-12.704 0-23.294-9.898-23.954-22.586-11.732-225.73-198.322-405.414-427.414-405.414-165.216 0-309.344 93.904-380.598 232h228.598c13.254 0 24 10.746 24 24v20c0 13.254-10.746 24-24 24h-320c-13.254 0-24-10.746-24-24v-320c0-13.254 10.746-24 24-24h20c13.254 0 24 10.746 24 24v221.254c86.142-146.732 245.554-245.254 428-245.254 265.546 0 482.352 208.676 495.38 470.986 0.678 13.636-10.33 25.014-23.982 25.014z" />
<glyph unicode="&#xe05f;" glyph-name="tachometer-alt" data-tags="tachometer-alt" horiz-adv-x="1152" d="M576 656c26.52 0 48 21.48 48 48s-21.48 48-48 48-48-21.48-48-48 21.48-48 48-48zM304 640c-26.52 0-48-21.48-48-48s21.48-48 48-48 48 21.48 48 48-21.48 48-48 48zM848 640c-26.52 0-48-21.48-48-48s21.48-48 48-48 48 21.48 48 48-21.48 48-48 48zM960 368c-26.52 0-48-21.48-48-48s21.48-48 48-48 48 21.48 48 48-21.48 48-48 48zM576 896c-318.12 0-576-257.88-576-576 0-105.6 28.5-204.52 78.12-289.6 11.22-19.24 32.6-30.4 54.88-30.4h886c22.28 0 43.66 11.16 54.88 30.4 49.62 85.080 78.12 184 78.12 289.6 0 318.12-257.88 576-576 576zM1019 64l-885.6-1.36c-45.4 77.86-69.4 166.84-69.4 257.36 0 282.32 229.68 512 512 512s512-229.68 512-512c0-90.52-24-179.5-69-256zM192 368c-26.52 0-48-21.48-48-48s21.48-48 48-48 48 21.48 48 48-21.48 48-48 48zM730.44 702.24c-16.38 5.56-34.88-3.1-40.68-19.78l-103.66-299.48c-3.38 0.26-6.62 1.020-10.080 1.020-70.7 0-128-57.3-128-128s57.3-128 128-128 128 57.3 128 128c0 44.5-22.76 83.64-57.24 106.58l103.48 298.96c5.74 16.68-3.080 34.92-19.82 40.7zM576 192c-35.28 0-64 28.72-64 64s28.72 64 64 64 64-28.72 64-64-28.72-64-64-64z" />
<glyph unicode="&#xe062;" glyph-name="thumbtack" data-tags="thumbtack" horiz-adv-x="767" d="M601.6 552.2l-20.2 151.8h74.6c26.4 0 48 21.6 48 48v160c0 26.4-21.6 48-48 48h-544c-26.4 0-48-21.6-48-48v-160c0-26.4 21.6-48 48-48h74.6l-20.2-151.8c-96.6-55.2-166.4-149-166.4-262.6 0-17.6 14.4-32 32-32h320v-241.6c0-1.4 0.2-2.6 0.4-3.8l16-64c4-16 27-16.2 31 0l16 64c0.4 1.2 0.4 2.6 0.4 3.8v241.6h320c17.6 0 32 14.4 32 32 0.2 113.6-69.6 207.4-166.2 262.6zM66.6 321.6c13.6 85.8 79.2 152.8 159 189l30.4 257.4h-128v128h512v-128h-128l30.6-257.6c80-36.4 145.4-103.6 159-189h-635z" />
<glyph unicode="&#xe063;" glyph-name="times-circle" data-tags="times-circle" d="M512 944c-274 0-496-222-496-496s222-496 496-496 496 222 496 496-222 496-496 496zM512 16c-237.4 0-432 192.2-432 432 0 237.4 192.2 432 432 432 237.4 0 432-192.2 432-432 0-237.4-192.2-432-432-432zM701.6 586.6l-138.6-138.6 138.6-138.6c9.4-9.4 9.4-24.6 0-34l-17-17c-9.4-9.4-24.6-9.4-34 0l-138.6 138.6-138.6-138.6c-9.4-9.4-24.6-9.4-34 0l-17 17c-9.4 9.4-9.4 24.6 0 34l138.6 138.6-138.6 138.6c-9.4 9.4-9.4 24.6 0 34l17 17c9.4 9.4 24.6 9.4 34 0l138.6-138.6 138.6 138.6c9.4 9.4 24.6 9.4 34 0l17-17c9.2-9.4 9.2-24.6 0-34z" />
<glyph unicode="&#xe064;" glyph-name="times" data-tags="times" horiz-adv-x="639" d="M387.88 448l247.42 247.42c6.24 6.24 6.24 16.38 0 22.62l-45.26 45.26c-6.24 6.24-16.38 6.24-22.62 0l-247.42-247.42-247.42 247.44c-6.24 6.24-16.38 6.24-22.62 0l-45.28-45.26c-6.24-6.24-6.24-16.38 0-22.62l247.44-247.44-247.44-247.42c-6.24-6.24-6.24-16.38 0-22.62l45.26-45.26c6.24-6.24 16.38-6.24 22.62 0l247.44 247.42 247.42-247.42c6.24-6.24 16.38-6.24 22.62 0l45.26 45.26c6.24 6.24 6.24 16.38 0 22.62z" />
<glyph unicode="&#xe065;" glyph-name="truck" data-tags="truck" horiz-adv-x="1280" d="M1264 192h-48v216.2c0 33.6-13.6 66.6-37.6 90.4l-167.8 167.8c-23.6 24-56.6 37.6-90.4 37.6h-88.2v98.8c0 51.4-44.4 93.2-98.8 93.2h-634.4c-54.4 0-98.8-41.8-98.8-93.2v-581.6c0-51.4 44.4-93.2 98.8-93.2h32.4c-2.2-10.4-3.2-21-3.2-32 0-88.4 71.6-160 160-160s160 71.6 160 160c0 11-1.2 21.6-3.2 32h390.4c-2.2-10.4-3.2-21-3.2-32 0-88.4 71.6-160 160-160s160 71.6 160 160c0 11-1.2 21.6-3.2 32h115.2c8.8 0 16 7.2 16 16v32c0 8.8-7.2 16-16 16zM920.2 640c16.8 0 33.4-6.8 45.2-18.8l167.8-167.8c1.6-1.6 2.2-3.8 3.6-5.6h-304.8v192h88.2zM288 0c-53 0-96 43-96 96s43 96 96 96 96-43 96-96-43-96-96-96zM415.2 192c-29.2 38.6-75.2 64-127.2 64s-98-25.4-127.2-64h-62c-19.2 0-34.8 13-34.8 29.2v581.6c0 16.2 15.6 29.2 34.8 29.2h634.4c19.2 0 34.8-13 34.8-29.2v-610.8zM992 0c-53 0-96 43-96 96s43 96 96 96 96-43 96-96-43-96-96-96zM992 256c-52.2 0-98-25.4-127.2-64h-32.8v192h320v-192h-32.8c-29.2 38.6-75 64-127.2 64z" />
<glyph unicode="&#xe066;" glyph-name="video" data-tags="video" horiz-adv-x="1531" d="M1448.77 876.563c-15.17 0-30.341-7.585-45.511-15.17l-295.822-189.63v159.289c0 68.267-60.681 128.948-136.533 128.948h-834.37c-75.852 0-136.533-60.681-136.533-128.948v-766.104c0-68.267 60.681-128.948 136.533-128.948h834.37c75.852 0 136.533 60.681 136.533 128.948v159.289l295.822-189.63c15.17-7.585 30.341-15.17 45.511-15.17 45.511 0 83.437 37.926 83.437 83.437v682.667c7.585 53.096-37.926 91.022-83.437 91.022zM1024 64.948c0-22.756-22.756-45.511-53.096-45.511h-834.37c-30.341 0-53.096 22.756-53.096 45.511v766.104c0 22.756 22.756 45.511 53.096 45.511h834.37c30.341 0 53.096-22.756 53.096-45.511zM1448.77 102.874l-341.333 219.97v250.311l341.333 219.97z" />
<glyph unicode="&#xe800;" glyph-name="home" data-tags="home, building, house" d="M1018.377 337.366l-452.492 500.122c-14.065 15.548-33.024 24.11-53.385 24.11-0.002 0 0 0 0 0-20.359 0-39.32-8.563-53.386-24.11l-452.492-500.122c-9.494-10.495-8.683-26.7 1.81-36.193 4.904-4.436 11.054-6.622 17.185-6.622 6.989 0 13.952 2.841 19.011 8.434l109.123 120.609v-410.918c0-42.388 34.487-76.875 76.875-76.875h563.751c42.388 0 76.875 34.487 76.875 76.875v410.918l109.125-120.611c9.494-10.493 25.699-11.307 36.193-1.81 10.493 9.494 11.304 25.7 1.808 36.193zM615.001-12.95h-205v230.625c0 14.129 11.496 25.625 25.625 25.625h153.75c14.129 0 25.625-11.496 25.625-25.625v-230.625zM820.001 12.675c0-14.129-11.496-25.625-25.625-25.625h-128.125v230.625c0 42.39-34.485 76.875-76.875 76.875h-153.75c-42.388 0-76.875-34.485-76.875-76.875v-230.625h-128.125c-14.129 0-25.625 11.496-25.625 25.625v467.563l292.117 322.867c4.226 4.672 9.689 7.244 15.383 7.244s11.157-2.573 15.381-7.242l292.119-322.867v-467.564z" />
<glyph unicode="&#xe801;" glyph-name="apartment" data-tags="apartment, building, city, business, work, office" d="M717.501 653.3h51.25v-51.25h-51.25v51.25zM717.501 550.8h51.25v-51.25h-51.25v51.25zM717.501 448.3h51.25v-51.25h-51.25v51.25zM717.501 345.8h51.25v-51.25h-51.25v51.25zM717.501 140.8h51.25v-51.25h-51.25v51.25zM717.501 243.3h51.25v-51.25h-51.25v51.25zM307.5 653.3h51.25v-51.25h-51.25v51.25zM307.5 550.8h51.25v-51.25h-51.25v51.25zM307.5 448.3h51.25v-51.25h-51.25v51.25zM307.5 345.8h51.25v-51.25h-51.25v51.25zM307.5 140.8h51.25v-51.25h-51.25v51.25zM307.5 243.3h51.25v-51.25h-51.25v51.25zM205 653.3h51.25v-51.25h-51.25v51.25zM205 550.8h51.25v-51.25h-51.25v51.25zM205 448.3h51.25v-51.25h-51.25v51.25zM205 345.8h51.25v-51.25h-51.25v51.25zM205 140.8h51.25v-51.25h-51.25v51.25zM205 243.3h51.25v-51.25h-51.25v51.25zM410 653.3h51.25v-51.25h-51.25v51.25zM410 550.8h51.25v-51.25h-51.25v51.25zM410 448.3h51.25v-51.25h-51.25v51.25zM410 345.8h51.25v-51.25h-51.25v51.25zM410 140.8h51.25v-51.25h-51.25v51.25zM410 243.3h51.25v-51.25h-51.25v51.25zM948.126-12.95h-25.625v691.876c0 39.096-29.052 79.404-66.142 91.767l-241.359 80.453v84.031c0 8.101-3.831 15.724-10.328 20.559-6.499 4.834-14.903 6.312-22.659 3.985l-463.413-139.022c-37.767-11.331-67.351-51.093-67.351-90.522v-743.126h-25.625c-14.152 0-25.625-11.472-25.625-25.625s11.473-25.625 25.625-25.625h922.501c14.153 0 25.625 11.472 25.625 25.625s-11.472 25.625-25.625 25.625zM840.153 722.072c16.275-5.424 31.097-25.99 31.097-43.146v-691.876h-256.25v810.073l225.153-75.051zM102.5 730.176c0 16.843 14.692 36.593 30.827 41.432l430.423 129.128v-913.686h-461.25v743.126z" />
<glyph unicode="&#xe802;" glyph-name="pencil" data-tags="pencil, write, edit" d="M979.057 914.858c-28.798 28.796-67.084 44.655-107.806 44.655-40.725 0-79.010-15.858-107.806-44.655l-653.438-653.438c-2.648-2.648-4.683-5.843-5.963-9.363l-102.5-281.875c-3.403-9.356-1.078-19.837 5.963-26.876 4.89-4.893 11.441-7.506 18.122-7.506 2.936 0 5.897 0.502 8.753 1.543l281.875 102.5c3.518 1.281 6.716 3.315 9.363 5.964l653.438 653.438c28.796 28.796 44.657 67.084 44.657 107.807s-15.858 79.010-44.657 107.806zM293.401 86.064l-224.929-81.79 81.792 224.927 567.237 567.237 143.137-143.137-567.237-567.237zM942.82 735.483l-45.944-45.944-143.137 143.137 45.944 45.944c19.117 19.117 44.533 29.643 71.568 29.643s52.451-10.528 71.569-29.645c19.117-19.117 29.645-44.533 29.645-71.568s-10.53-52.451-29.645-71.568z" />
<glyph unicode="&#xe803;" glyph-name="magic-wand" data-tags="magic-wand, tool, wizard" d="M589.376 602.050c-14.153 0-25.625 11.473-25.625 25.625 0 70.648-57.477 128.125-128.125 128.125-14.152 0-25.625 11.473-25.625 25.625s11.473 25.625 25.625 25.625c70.648 0 128.125 57.477 128.125 128.125 0 14.152 11.472 25.625 25.625 25.625s25.625-11.473 25.625-25.625c0-70.648 57.477-128.125 128.125-128.125 14.153 0 25.625-11.473 25.625-25.625s-11.472-25.625-25.625-25.625c-70.648 0-128.125-57.477-128.125-128.125 0-14.152-11.472-25.625-25.625-25.625zM527.942 781.426c25.135-15.151 46.283-36.299 61.434-61.436 15.151 25.137 36.299 46.285 61.436 61.436-25.137 15.151-46.285 36.299-61.436 61.436-15.151-25.137-36.299-46.285-61.434-61.436zM76.875 448.3c-14.152 0-25.625 11.473-25.625 25.625 0 14.129-11.496 25.625-25.625 25.625-14.152 0-25.625 11.473-25.625 25.625s11.473 25.625 25.625 25.625c14.129 0 25.625 11.496 25.625 25.625 0 14.152 11.473 25.625 25.625 25.625s25.625-11.473 25.625-25.625c0-14.129 11.496-25.625 25.625-25.625 14.152 0 25.625-11.473 25.625-25.625s-11.473-25.625-25.625-25.625c-14.129 0-25.625-11.496-25.625-25.625 0-14.152-11.473-25.625-25.625-25.625zM930.009 143.907l-542.525 542.524c-14.48 14.48-33.785 22.454-54.359 22.454s-39.879-7.974-54.359-22.454l-30.021-30.021c-14.48-14.48-22.454-33.785-22.454-54.359s7.974-39.879 22.454-54.359l542.524-542.522c14.478-14.48 33.783-22.456 54.357-22.456s39.879 7.973 54.359 22.456l30.023 30.021c14.48 14.478 22.454 33.785 22.454 54.357s-7.973 39.881-22.452 54.359zM284.984 620.17l30.021 30.021c4.8 4.8 11.235 7.442 18.12 7.442s13.32-2.643 18.12-7.442l73.763-73.765-66.262-66.262-73.763 73.763c-9.992 9.994-9.992 26.25 0 36.241zM893.767 71.43l-30.023-30.021c-4.799-4.799-11.235-7.441-18.117-7.441s-13.319 2.643-18.117 7.441l-432.524 432.521 66.262 66.26 432.52-432.521c9.991-9.991 9.991-26.248 0-36.238zM179.375 704.551c-14.152 0-25.625 11.473-25.625 25.625 0 42.388-34.487 76.875-76.875 76.875-14.152 0-25.625 11.473-25.625 25.625s11.473 25.625 25.625 25.625c42.388 0 76.875 34.487 76.875 76.875 0 14.152 11.473 25.625 25.625 25.625s25.625-11.473 25.625-25.625c0-42.388 34.487-76.875 76.875-76.875 14.152 0 25.625-11.473 25.625-25.625s-11.473-25.625-25.625-25.625c-42.388 0-76.875-34.487-76.875-76.875 0-14.152-11.473-25.625-25.625-25.625zM153.67 832.676c9.735-7.311 18.394-15.973 25.705-25.705 7.311 9.735 15.973 18.394 25.705 25.705-9.735 7.311-18.394 15.973-25.705 25.705-7.311-9.733-15.973-18.394-25.705-25.705zM179.375 192.050c-14.152 0-25.625 11.472-25.625 25.625 0 42.388-34.487 76.875-76.875 76.875-14.152 0-25.625 11.472-25.625 25.625s11.473 25.625 25.625 25.625c42.388 0 76.875 34.487 76.875 76.875 0 14.153 11.473 25.625 25.625 25.625s25.625-11.472 25.625-25.625c0-42.388 34.487-76.875 76.875-76.875 14.152 0 25.625-11.472 25.625-25.625s-11.473-25.625-25.625-25.625c-42.388 0-76.875-34.487-76.875-76.875 0-14.153-11.473-25.625-25.625-25.625zM153.67 320.175c9.735-7.309 18.394-15.973 25.705-25.705 7.311 9.733 15.973 18.392 25.705 25.705-9.735 7.309-18.394 15.973-25.705 25.705-7.311-9.733-15.973-18.396-25.705-25.705z" />
<glyph unicode="&#xe804;" glyph-name="drop" data-tags="drop, droplet, water, color, liquid" d="M512.5-64.2c-82.7 0-159.796 33.583-217.089 94.564-58.070 61.807-90.050 146.53-90.051 238.561 0 150.825 67.044 258.752 138.028 373.017 54.843 88.283 111.552 179.572 144.389 299.976 3.041 11.149 13.168 18.882 24.723 18.882s21.682-7.734 24.723-18.882c32.845-120.435 89.648-211.743 144.579-300.045 71.069-114.243 138.197-222.15 138.197-372.948 0-92.221-31.78-176.936-89.482-238.534-57.141-60.998-134.568-94.591-218.018-94.591zM512.503 852.487c-34.543-91.038-80.668-165.286-125.582-237.587-69.924-112.561-130.311-209.771-130.311-345.973 0-160.696 110.009-281.875 255.89-281.875 146.087 0 256.25 121.179 256.25 281.875 0 136.16-60.459 233.345-130.465 345.877-44.994 72.325-91.201 146.604-125.782 237.683z" />
<glyph unicode="&#xe805;" glyph-name="lighter" data-tags="lighter, fire" d="M896.876 499.55h-35.363l-43.829 88.272c-4.329 8.716-13.221 14.228-22.952 14.228h-205.358c-14.153 0-25.625-11.473-25.625-25.625v-76.875h-62.082l-197.603 342.256c-7.076 12.255-22.747 16.459-35.004 9.379l-177.535-102.5c-12.257-7.076-16.456-22.748-9.379-35.004l205-355.070c4.747-8.221 13.359-12.818 22.216-12.818 4.346 0 8.755 1.108 12.788 3.437l139.098 80.308v-416.865c0-14.153 11.473-25.625 25.625-25.625h410c14.153 0 25.625 11.472 25.625 25.625v461.25c0 14.153-11.472 25.625-25.625 25.625zM871.251 192.050h-51.25v153.75h51.25v-153.75zM615.001 550.8h163.846l25.447-51.25h-189.294v51.25zM318.719 406.427l-179.375 310.685 133.151 76.875 179.375-310.685-133.151-76.875zM512.5 38.3v410h332.963c0.061 0 0.12-0.006 0.181-0.006 0.035 0 0.074 0.006 0.11 0.006h25.495v-51.25h-76.875c-14.153 0-25.625-11.472-25.625-25.625v-205c0-14.153 11.472-25.625 25.625-25.625h76.875v-102.5h-358.75zM794.376 653.3c-38.448 0-57.139 18.16-66.049 33.396-16.94 28.966-14.108 72.661 8.662 133.578 15.308 40.955 34.252 74.793 35.052 76.213 4.538 8.069 13.077 13.063 22.334 13.063s17.795-4.994 22.334-13.063c0.799-1.42 19.744-35.258 35.052-76.213 22.771-60.918 25.603-104.612 8.662-133.578-8.91-15.236-27.601-33.396-66.049-33.396zM794.378 825.525c-3.235-7.461-6.508-15.476-9.59-23.753-23.241-62.44-15.226-84.066-12.217-89.207 1.283-2.192 4.69-8.014 21.805-8.014 17.118 0 20.526 5.827 21.808 8.019 3.024 5.17 11.061 26.917-12.43 89.762-3.024 8.093-6.22 15.91-9.377 23.194z" />
<glyph unicode="&#xe806;" glyph-name="poop" data-tags="poop, toilet, feces, crap" d="M874.187 279.028c-3.97 2.248-8.056 4.447-12.234 6.606 48.963 38.381 60.549 80.34 60.549 111.416 0 72.745-61.138 136.061-162.7 174.696 5.881 17.983 8.95 36.916 8.95 55.93 0 98.908-80.468 179.375-179.375 179.375-35.069 0-76.875 8.892-76.875 51.25 0 23.221 29.603 48.588 39.911 55.601 9.363 6.286 13.514 17.954 10.228 28.74s-13.237 18.159-24.514 18.159c-80.323 0-162.855-26.394-226.432-72.417-32.442-23.484-58.188-50.644-76.525-80.729-20.018-32.846-30.168-67.536-30.168-103.106 0-14.758 1.244-29.421 3.612-43.84-43.511-21.013-80.27-48.76-107.123-81.012-32.867-39.476-50.239-84.913-50.239-131.398 0-27.993 6.283-56.527 18.224-84.117-45.534-43.753-69.474-94.071-69.474-146.508 0-78.17 52.659-150.475 148.278-203.596 90.862-50.479 211.112-78.279 338.598-78.279 131.085 0 250.031 17.046 334.93 47.996 125.584 45.783 151.945 110.65 151.945 157.004 0 37.327-17.273 91.607-99.564 138.228zM804.251 31.945c-79.414-28.951-192.127-44.895-317.376-44.895-118.922 0-230.332 25.51-313.708 71.83-78.619 43.677-121.917 100.072-121.917 158.795 0 40.866 21.023 74.852 44.409 100.034 5.891-8.386 12.319-16.589 19.296-24.55 40.811-46.581 97.564-82.133 159.806-100.103 2.373-0.686 4.767-1.012 7.119-1.012 11.125 0 21.368 7.301 24.608 18.522 3.926 13.597-3.914 27.801-17.511 31.729-106.31 30.692-186.476 119.257-186.476 206.006 0 62.736 45.081 122.946 119.386 161.713 26.852-73.931 83.525-135.351 153.948-160.247 2.825-0.999 5.707-1.471 8.541-1.471 10.554 0 20.441 6.572 24.16 17.091 4.717 13.343-2.276 27.984-15.618 32.701-77.913 27.544-136.666 116.306-136.666 206.466 0 51.869 30.363 102.412 85.494 142.318 38.127 27.598 84.192 47.041 132.1 56.383-7.404-13.205-12.594-28.377-12.594-44.951 0-49.55 33.659-102.5 128.125-102.5 70.648 0 128.125-57.477 128.125-128.125 0-13.881-2.159-27.323-6.409-40.17-20.906 5.689-43.076 10.463-66.391 14.219-13.969 2.248-27.124-7.252-29.375-21.224-2.248-13.972 7.252-27.124 21.226-29.375 71.103-11.453 131.374-33.184 174.298-62.848 27.555-19.041 60.401-50.326 60.401-91.227 0-33.054-21.951-62.421-65.266-87.403-46.873 16.677-101.787 28.903-162.388 35.981-14.057 1.656-26.784-8.421-28.425-22.478s8.422-26.784 22.478-28.425c86.412-10.095 159.468-30.94 211.272-60.289 33.567-19.014 73.578-50.695 73.578-93.635 0-54.339-64.305-89.188-118.249-108.855z" />
<glyph unicode="&#xe807;" glyph-name="sun" data-tags="sun, brightness, weather" d="M486.875 192.428c-126.958 0-230.247 103.288-230.247 230.247s103.29 230.247 230.247 230.247 230.247-103.29 230.247-230.247-103.29-230.247-230.247-230.247zM486.875 601.672c-98.699 0-178.997-80.297-178.997-178.997s80.297-178.997 178.997-178.997 178.997 80.297 178.997 178.997-80.297 178.997-178.997 178.997zM486.875 704.551c-14.152 0-25.625 11.473-25.625 25.625v153.75c0 14.152 11.473 25.625 25.625 25.625s25.625-11.473 25.625-25.625v-153.75c0-14.152-11.473-25.625-25.625-25.625zM486.875-64.2c-14.152 0-25.625 11.472-25.625 25.625v153.75c0 14.153 11.473 25.625 25.625 25.625s25.625-11.472 25.625-25.625v-153.75c0-14.153-11.473-25.625-25.625-25.625zM179.375 397.050h-153.75c-14.152 0-25.625 11.472-25.625 25.625s11.473 25.625 25.625 25.625h153.75c14.152 0 25.625-11.472 25.625-25.625s-11.473-25.625-25.625-25.625zM948.126 397.050h-153.75c-14.153 0-25.625 11.472-25.625 25.625s11.472 25.625 25.625 25.625h153.75c14.153 0 25.625-11.472 25.625-25.625s-11.472-25.625-25.625-25.625zM230.625 653.3c-6.558 0-13.115 2.501-18.119 7.505l-102.5 102.5c-10.008 10.008-10.008 26.232 0 36.238s26.232 10.008 36.238 0l102.5-102.5c10.008-10.008 10.008-26.232 0-36.238-5.003-5.003-11.561-7.505-18.12-7.505zM128.125 38.3c-6.558 0-13.115 2.501-18.119 7.506-10.008 10.007-10.008 26.232 0 36.238l102.5 102.5c10.007 10.007 26.232 10.007 36.238 0s10.008-26.232 0-36.238l-102.5-102.5c-5.005-5.005-11.561-7.506-18.12-7.506zM845.626 38.3c-6.558 0-13.115 2.501-18.119 7.506l-102.5 102.5c-10.008 10.007-10.008 26.232 0 36.238 10.007 10.007 26.232 10.007 36.238 0l102.5-102.5c10.008-10.007 10.008-26.232 0-36.238-5.005-5.005-11.561-7.506-18.12-7.506zM743.126 653.3c-6.558 0-13.115 2.501-18.119 7.506-10.008 10.007-10.008 26.232 0 36.238l102.5 102.5c10.007 10.008 26.232 10.008 36.238 0 10.008-10.007 10.008-26.232 0-36.238l-102.5-102.5c-5.005-5.005-11.561-7.506-18.12-7.506z" />
<glyph unicode="&#xe808;" glyph-name="moon" data-tags="moon, night" d="M525.313-64.2c-140.316 0-272.234 54.642-371.453 153.86s-153.86 231.136-153.86 371.453c0 115.355 37.036 224.229 107.102 314.853 33.561 43.407 73.746 81.234 119.442 112.433 46.095 31.471 96.758 55.478 150.584 71.355 9.829 2.904 20.444-0.336 26.983-8.23s7.746-18.924 3.067-28.043c-33.038-64.402-48.426-125.825-48.426-193.304 0-240.205 195.421-435.625 435.625-435.625 67.48 0 128.902 15.386 193.304 48.425 9.116 4.679 20.15 3.472 28.043-3.067s11.131-17.151 8.232-26.983c-15.877-53.826-39.884-104.489-71.356-150.582-31.196-45.695-69.025-85.881-112.433-119.442-90.625-70.066-199.501-107.102-314.853-107.102zM336.726 890.836c-172.91-74.054-285.476-240.294-285.476-429.724 0-261.399 212.664-474.063 474.063-474.063 189.419 0 355.661 112.585 429.724 285.476-52.457-19.617-105.476-29.226-160.661-29.226-130.049 0-252.313 50.643-344.272 142.601-91.959 91.96-142.603 214.225-142.603 344.274 0 55.185 9.609 108.204 29.226 160.661z" />
<glyph unicode="&#xe809;" glyph-name="cloud" data-tags="cloud, weather" d="M820.321 140.8h-512.821c-169.556 0-307.5 137.945-307.5 307.5s137.945 307.5 307.5 307.5c82.114 0 160.746-32.949 218.317-90.955 4.487 9.957 10.058 19.488 16.659 28.431 28.898 39.15 75.166 62.523 123.774 62.523 84.779 0 153.75-68.971 153.75-153.75 0-17.975-3.121-35.558-9.105-52.102 3.129 0.142 6.273 0.211 9.425 0.211 112.86 0 204.68-91.82 204.68-204.68s-91.82-204.68-204.68-204.68zM307.5 704.551c-141.296 0-256.25-114.952-256.25-256.25s114.954-256.25 256.25-256.25h512.821c84.601 0 153.43 68.829 153.43 153.43s-68.829 153.43-153.43 153.43c-18.146 0-35.829-3.104-52.558-9.231-11.177-4.092-23.7 0.050-30.232 9.999s-5.354 23.087 2.845 31.716c18.298 19.254 28.375 44.35 28.375 70.658 0 56.519-45.981 102.5-102.5 102.5-32.89 0-62.973-15.202-82.537-41.708-11.81-16.002-18.687-34.741-19.886-54.191-0.671-10.861-8.125-20.116-18.592-23.077-10.472-2.969-21.669 1.007-27.933 9.901-5.638 8.005-11.741 15.716-18.144 22.924-48.634 54.749-118.49 86.15-191.657 86.15z" />
<glyph unicode="&#xe80a;" glyph-name="cloud-upload" data-tags="cloud-upload, cloud" d="M820.321 140.8h-179.695c-14.153 0-25.625 11.472-25.625 25.625s11.472 25.625 25.625 25.625h179.695c84.601 0 153.43 68.829 153.43 153.43s-68.829 153.43-153.43 153.43c-18.023 0-35.661-3.089-52.419-9.182-11.179-4.060-23.677 0.099-30.192 10.045-6.513 9.948-5.328 23.071 2.862 31.69 18.172 19.125 28.18 44.193 28.18 70.587 0 56.519-45.981 102.5-102.5 102.5-32.89 0-62.973-15.202-82.537-41.708-11.715-15.875-18.551-34.672-19.765-54.36-0.671-10.878-8.149-20.142-18.64-23.092s-21.703 1.060-27.942 9.994l-0.238 0.342c-5.495 7.803-11.56 15.458-17.97 22.675-48.634 54.747-118.49 86.148-191.657 86.148-141.296 0-256.25-114.954-256.25-256.25 0-141.298 114.954-256.25 256.25-256.25h128.125c14.152 0 25.625-11.472 25.625-25.625s-11.473-25.625-25.625-25.625h-128.125c-169.556 0-307.5 137.945-307.5 307.5s137.945 307.5 307.5 307.5c82.13 0 160.778-32.965 218.355-90.99 4.474 9.999 10.036 19.539 16.624 28.466 28.895 39.15 75.163 62.523 123.771 62.523 84.779 0 153.75-68.971 153.75-153.75 0-17.994-3.102-35.577-9.044-52.101 3.113 0.139 6.236 0.21 9.366 0.21 112.86 0 204.68-91.82 204.68-204.68-0.002-112.86-91.821-204.68-204.682-204.68zM658.744 338.294l-102.5 102.5c-10.007 10.007-26.232 10.007-36.238 0l-102.5-102.5c-10.007-10.007-10.007-26.232 0-36.238s26.232-10.007 36.24 0l58.755 58.755v-194.385c0-14.153 11.472-25.625 25.625-25.625s25.625 11.472 25.625 25.625v194.385l58.756-58.755c5.003-5.003 11.56-7.505 18.119-7.505s13.115 2.501 18.119 7.506c10.008 10.007 10.008 26.231 0 36.237z" />
<glyph unicode="&#xe80b;" glyph-name="cloud-download" data-tags="cloud-download, cloud" d="M820.321 140.8h-128.445c-14.153 0-25.625 11.472-25.625 25.625s11.472 25.625 25.625 25.625h128.445c84.601 0 153.43 68.829 153.43 153.43s-68.829 153.43-153.43 153.43c-18.023 0-35.661-3.089-52.419-9.182-11.179-4.060-23.677 0.099-30.192 10.045-6.513 9.948-5.328 23.071 2.862 31.69 18.172 19.125 28.18 44.193 28.18 70.587 0 56.519-45.981 102.5-102.5 102.5-32.89 0-62.973-15.202-82.537-41.708-11.715-15.875-18.551-34.672-19.765-54.36-0.671-10.878-8.149-20.142-18.64-23.092s-21.703 1.060-27.942 9.994l-0.238 0.342c-5.495 7.803-11.56 15.458-17.97 22.675-48.634 54.747-118.49 86.148-191.657 86.148-141.296 0-256.25-114.954-256.25-256.25 0-141.298 114.954-256.25 256.25-256.25h76.875c14.152 0 25.625-11.472 25.625-25.625s-11.473-25.625-25.625-25.625h-76.875c-169.556 0-307.5 137.945-307.5 307.5s137.945 307.5 307.5 307.5c82.13 0 160.778-32.965 218.355-90.99 4.474 9.999 10.036 19.539 16.624 28.466 28.895 39.15 75.163 62.523 123.771 62.523 84.779 0 153.75-68.971 153.75-153.75 0-17.994-3.102-35.577-9.044-52.101 3.113 0.139 6.236 0.21 9.366 0.21 112.86 0 204.68-91.82 204.68-204.68-0.002-112.86-91.821-204.68-204.682-204.68zM658.744 287.044c-10.007 10.007-26.232 10.007-36.238 0l-58.755-58.753v194.385c0 14.153-11.472 25.625-25.625 25.625s-25.625-11.472-25.625-25.625v-194.385l-58.755 58.755c-10.008 10.007-26.232 10.007-36.24 0-10.007-10.007-10.007-26.232 0-36.238l102.5-102.5c5.005-5.005 11.561-7.506 18.12-7.506s13.115 2.501 18.119 7.506l102.5 102.5c10.008 10.007 10.008 26.231 0 36.237z" />
<glyph unicode="&#xe80c;" glyph-name="cloud-sync" data-tags="cloud-sync, cloud" d="M820.321 550.16c-3.129 0-6.251-0.070-9.366-0.21 5.944 16.523 9.046 34.107 9.046 52.101 0 84.779-68.971 153.75-153.75 153.75-48.607 0-94.875-23.373-123.771-62.523-6.588-8.927-12.15-18.469-16.624-28.468-57.578 58.027-136.226 90.991-218.355 90.991-169.556 0-307.5-137.945-307.5-307.5s137.945-307.5 307.5-307.5h512.821c112.86 0 204.68 91.82 204.68 204.68s-91.82 204.68-204.68 204.68zM820.321 192.050h-512.821c-141.296 0-256.25 114.952-256.25 256.25 0 141.296 114.954 256.25 256.25 256.25 73.167 0 143.023-31.401 191.656-86.15 6.409-7.217 12.474-14.873 17.97-22.675l0.238-0.342c6.24-8.932 17.444-12.943 27.942-9.994 10.492 2.95 17.97 12.214 18.64 23.092 1.214 19.688 8.048 38.486 19.765 54.36 19.565 26.508 49.648 41.71 82.539 41.71 56.519 0 102.5-45.981 102.5-102.5 0-26.394-10.008-51.463-28.18-70.587-8.19-8.619-9.375-21.743-2.862-31.69s19.013-14.107 30.192-10.045c16.762 6.092 34.399 9.182 52.419 9.182 84.601 0 153.43-68.829 153.43-153.43s-68.829-153.43-153.43-153.43zM328.187 347.884c-6.756-1.382-13.715-2.084-20.687-2.084-56.519 0-102.5 45.981-102.5 102.5v15.012l7.506-7.506c5.003-5.003 11.56-7.505 18.119-7.505s13.115 2.501 18.119 7.506c10.008 10.007 10.008 26.232 0 36.238l-51.25 51.25c-10.007 10.008-26.232 10.008-36.238 0l-51.25-51.25c-10.008-10.007-10.008-26.232 0-36.238 10.007-10.008 26.232-10.008 36.238 0l7.506 7.505v-15.012c0-84.779 68.971-153.75 153.75-153.75 10.415 0 20.83 1.051 30.958 3.121 13.867 2.837 22.806 16.378 19.97 30.243s-16.368 22.795-30.241 19.97zM468.757 440.794l-7.506-7.505v15.012c0 84.779-68.971 153.75-153.75 153.75-10.413 0-20.83-1.051-30.958-3.123-13.865-2.837-22.804-16.376-19.969-30.241s16.376-22.806 30.241-19.969c6.756 1.382 13.714 2.082 20.687 2.082 56.519 0 102.5-45.981 102.5-102.5v-15.012l-7.506 7.506c-10.007 10.007-26.232 10.007-36.238 0-10.008-10.007-10.008-26.232 0-36.238l51.25-51.25c5.003-5.005 11.56-7.506 18.119-7.506s13.115 2.501 18.119 7.506l51.25 51.25c10.008 10.007 10.008 26.232 0 36.238-10.007 10.007-26.231 10.007-36.237-0.002z" />
<glyph unicode="&#xe80d;" glyph-name="cloud-check" data-tags="cloud-check, cloud" d="M820.001 140.8h-486.875c-14.152 0-25.625 11.472-25.625 25.625s11.473 25.625 25.625 25.625h486.875c84.779 0 153.75 68.971 153.75 153.75s-68.971 153.75-153.75 153.75c-17.593 0-34.831-2.939-51.231-8.735-11.112-3.926-23.474 0.234-29.951 10.085-6.475 9.85-5.394 22.849 2.619 31.495 17.612 19.005 27.313 43.742 27.313 69.655 0 56.519-45.981 102.5-102.5 102.5-54.050 0-98.985-42.203-102.298-96.080-0.668-10.869-8.133-20.127-18.612-23.087-10.484-2.963-21.685 1.028-27.939 9.94-48.004 68.393-126.471 109.227-209.901 109.227-141.296 0-256.25-114.952-256.25-256.25 0-7.778 0.352-15.626 1.046-23.324 1.27-14.096-9.126-26.551-23.221-27.822-14.094-1.279-26.551 9.126-27.822 23.221-0.831 9.22-1.252 18.616-1.252 27.925 0 169.556 137.945 307.5 307.5 307.5 82.564 0 161.074-33.319 218.362-91.022 24.117 53.799 78.236 91.022 140.388 91.022 84.779 0 153.75-68.971 153.75-153.75 0-17.727-3.027-35.090-8.827-51.436 2.934 0.123 5.876 0.186 8.827 0.186 113.036 0 205-91.964 205-205s-91.964-205-205-205zM179.375 166.425c-6.558 0-13.115 2.501-18.12 7.506l-102.5 102.5c-10.007 10.007-10.007 26.232 0 36.238s26.232 10.007 36.24 0l84.38-84.38 238.131 238.131c10.008 10.007 26.232 10.007 36.24 0 10.007-10.007 10.007-26.232 0-36.238l-256.25-256.25c-5.005-5.005-11.561-7.506-18.12-7.506z" />
<glyph unicode="&#xe80e;" glyph-name="database" data-tags="database, storage" d="M925.944 878.341c-25.454 16.717-61.137 31.519-106.059 43.998-89.287 24.802-207.553 38.462-333.010 38.462s-243.723-13.659-333.011-38.462c-44.921-12.479-80.605-27.281-106.059-43.998-31.721-20.833-47.805-44.818-47.805-71.291v-615.001c0-26.472 16.085-50.459 47.805-71.292 25.454-16.717 61.137-31.519 106.059-43.997 89.289-24.803 207.555-38.462 333.011-38.462s243.723 13.658 333.011 38.464c44.922 12.478 80.605 27.28 106.059 43.997 31.721 20.831 47.805 44.818 47.805 71.291v615.001c0 26.472-16.085 50.457-47.807 71.291zM167.582 872.958c84.947 23.597 198.343 36.593 319.294 36.593s234.346-12.995 319.294-36.593c92.018-25.561 116.332-54.288 116.332-65.907s-24.314-40.346-116.332-65.907c-84.949-23.597-198.343-36.593-319.294-36.593s-234.347 12.995-319.294 36.593c-92.018 25.561-116.332 54.288-116.332 65.907s24.314 40.346 116.332 65.907zM806.169 126.143c-84.949-23.597-198.343-36.593-319.294-36.593s-234.346 12.995-319.294 36.593c-92.018 25.561-116.332 54.288-116.332 65.907v131.517c25.193-15.818 59.669-29.875 102.614-41.806 89.289-24.803 207.555-38.462 333.011-38.462s243.723 13.658 333.011 38.464c42.944 11.929 77.423 25.987 102.614 41.806v-131.518c0-11.619-24.314-40.346-116.332-65.907zM806.169 331.143c-84.949-23.597-198.343-36.593-319.294-36.593s-234.346 12.995-319.294 36.593c-92.018 25.561-116.332 54.288-116.332 65.907v131.518c25.193-15.818 59.669-29.877 102.614-41.807 89.289-24.802 207.555-38.462 333.011-38.462s243.723 13.659 333.011 38.462c42.944 11.93 77.423 25.988 102.614 41.807v-131.518c0-11.619-24.314-40.346-116.332-65.907zM806.169 536.143c-84.949-23.597-198.343-36.593-319.294-36.593s-234.346 12.995-319.294 36.593c-92.018 25.561-116.332 54.288-116.332 65.907v131.518c25.193-15.818 59.669-29.877 102.614-41.807 89.289-24.802 207.555-38.462 333.011-38.462s243.723 13.659 333.011 38.462c42.944 11.93 77.423 25.988 102.614 41.807v-131.518c0-11.619-24.314-40.346-116.332-65.907z" />
<glyph unicode="&#xe80f;" glyph-name="lock" data-tags="lock, privacy, encryption, security" d="M743.126 550.8h-25.625v76.875c0 127.167-103.458 230.625-230.625 230.625s-230.625-103.458-230.625-230.625v-76.875h-25.625c-42.388 0-76.875-34.487-76.875-76.875v-410c0-42.388 34.487-76.875 76.875-76.875h512.5c42.388 0 76.875 34.487 76.875 76.875v410c0 42.388-34.487 76.875-76.875 76.875zM307.5 627.675c0 98.908 80.468 179.375 179.375 179.375s179.375-80.468 179.375-179.375v-76.875h-358.75v76.875zM768.751 63.925c0-14.129-11.496-25.625-25.625-25.625h-512.5c-14.129 0-25.625 11.496-25.625 25.625v410c0 14.129 11.496 25.625 25.625 25.625h512.5c14.129 0 25.625-11.496 25.625-25.625v-410z" />
<glyph unicode="&#xe810;" glyph-name="cog" data-tags="cog, gear, preferences, settings, generate, control, options" d="M391.092-48.94c-2.111 0-4.252 0.262-6.384 0.811-46.021 11.815-90.237 30.071-131.419 54.263-11.935 7.010-16.146 22.232-9.51 34.378 8.158 14.94 12.471 31.897 12.471 49.040 0 56.519-45.981 102.5-102.5 102.5-17.142 0-34.099-4.313-49.040-12.471-12.145-6.633-27.366-2.423-34.376 9.51-24.194 41.182-42.449 85.398-54.264 131.421-3.336 13.002 3.924 26.375 16.645 30.659 41.74 14.051 69.785 53.086 69.785 97.132s-28.045 83.081-69.786 97.135c-12.719 4.282-19.982 17.655-16.643 30.657 11.815 46.021 30.071 90.237 54.264 131.419 7.010 11.935 22.232 16.146 34.378 9.51 14.938-8.158 31.895-12.471 49.038-12.471 56.519 0 102.5 45.981 102.5 102.5 0 17.143-4.313 34.1-12.471 49.038-6.635 12.146-2.424 27.368 9.51 34.378 41.181 24.192 85.397 42.449 131.419 54.264 13.007 3.337 26.375-3.924 30.657-16.643 14.054-41.742 53.089-69.786 97.135-69.786s83.081 28.045 97.133 69.785c4.284 12.722 17.662 19.985 30.659 16.645 46.021-11.814 90.238-30.071 131.421-54.264 11.934-7.010 16.144-22.23 9.51-34.376-8.16-14.941-12.473-31.898-12.473-49.040 0-56.519 45.981-102.5 102.5-102.5 17.143 0 34.1 4.313 49.040 12.471 12.15 6.635 27.368 2.423 34.378-9.51 24.19-41.181 42.447-85.397 54.263-131.419 3.337-13.002-3.922-26.375-16.643-30.657-41.742-14.054-69.786-53.089-69.786-97.135s28.045-83.081 69.786-97.133c12.719-4.284 19.982-17.655 16.643-30.659-11.815-46.021-30.071-90.238-54.263-131.419-7.012-11.937-22.23-16.144-34.378-9.511-14.941 8.16-31.898 12.473-49.040 12.473-56.519 0-102.5-45.981-102.5-102.5 0-17.142 4.313-34.099 12.473-49.040 6.633-12.148 2.423-27.368-9.511-34.378-41.181-24.19-85.397-42.447-131.419-54.263-13.005-3.339-26.375 3.922-30.659 16.643-14.052 41.742-53.087 69.786-97.133 69.786s-83.081-28.045-97.135-69.786c-3.581-10.634-13.515-17.454-24.274-17.454zM512.5 89.55c57.771 0 109.8-32.169 136.050-82.109 26.663 8.226 52.558 18.893 77.375 31.877-5.546 16.093-8.424 33.107-8.424 50.231 0 84.779 68.971 153.75 153.75 153.75 17.124 0 34.139-2.878 50.23-8.426 12.984 24.816 23.653 50.712 31.877 77.375-49.939 26.252-82.107 78.279-82.107 136.051s32.169 109.798 82.109 136.051c-8.226 26.663-18.893 52.557-31.877 77.375-16.093-5.547-33.106-8.426-50.231-8.426-84.779 0-153.75 68.971-153.75 153.75 0 17.124 2.878 34.139 8.426 50.23-24.816 12.984-50.712 23.653-77.375 31.877-26.252-49.939-78.279-82.107-136.051-82.107s-109.798 32.169-136.050 82.107c-26.663-8.224-52.558-18.892-77.375-31.877 5.547-16.091 8.424-33.104 8.424-50.23 0-84.779-68.971-153.75-153.75-153.75-17.126 0-34.139 2.877-50.23 8.426-12.986-24.818-23.653-50.712-31.877-77.375 49.939-26.253 82.107-78.279 82.107-136.051s-32.169-109.8-82.107-136.050c8.224-26.663 18.893-52.558 31.877-77.375 16.091 5.546 33.106 8.424 50.23 8.424 84.779 0 153.75-68.971 153.75-153.75 0-17.126-2.878-34.139-8.426-50.23 24.818-12.984 50.712-23.653 77.375-31.877 26.253 49.939 78.279 82.107 136.051 82.107zM512.5 294.55c-84.779 0-153.75 68.971-153.75 153.75s68.971 153.75 153.75 153.75 153.75-68.971 153.75-153.75-68.971-153.75-153.75-153.75zM512.5 550.8c-56.519 0-102.5-45.981-102.5-102.5s45.981-102.5 102.5-102.5c56.519 0 102.5 45.981 102.5 102.5s-45.981 102.5-102.5 102.5z" />
<glyph unicode="&#xe811;" glyph-name="trash" data-tags="trash, bin, remove, waste" d="M794.376 858.301h-179.375v25.625c0 42.388-34.487 76.875-76.875 76.875h-102.5c-42.388 0-76.875-34.487-76.875-76.875v-25.625h-179.375c-42.388 0-76.875-34.487-76.875-76.875v-51.25c0-33.406 21.424-61.889 51.25-72.468v-645.033c0-42.39 34.487-76.875 76.875-76.875h512.5c42.39 0 76.875 34.485 76.875 76.875v645.033c29.826 10.578 51.25 39.062 51.25 72.468v51.25c0 42.388-34.485 76.875-76.875 76.875zM410 883.926c0 14.129 11.496 25.625 25.625 25.625h102.5c14.129 0 25.625-11.496 25.625-25.625v-25.625h-153.75v25.625zM743.126-12.95h-512.5c-14.129 0-25.625 11.496-25.625 25.625v640.626h563.751v-640.626c0-14.129-11.496-25.625-25.625-25.625zM820.001 730.176c0-14.129-11.496-25.625-25.625-25.625h-615.001c-14.129 0-25.625 11.496-25.625 25.625v51.25c0 14.129 11.496 25.625 25.625 25.625h615.001c14.129 0 25.625-11.496 25.625-25.625v-51.25zM640.626 602.050c-14.153 0-25.625-11.473-25.625-25.625v-512.5c0-14.153 11.472-25.625 25.625-25.625s25.625 11.472 25.625 25.625v512.5c0 14.152-11.472 25.625-25.625 25.625zM486.875 602.050c-14.152 0-25.625-11.473-25.625-25.625v-512.5c0-14.153 11.473-25.625 25.625-25.625s25.625 11.472 25.625 25.625v512.5c0 14.152-11.473 25.625-25.625 25.625zM333.125 602.050c-14.152 0-25.625-11.473-25.625-25.625v-512.5c0-14.153 11.473-25.625 25.625-25.625s25.625 11.472 25.625 25.625v512.5c0 14.152-11.473 25.625-25.625 25.625z" />
<glyph unicode="&#xe812;" glyph-name="dice" data-tags="dice, game, random, board-game" d="M281.875 140.8c-42.388 0-76.875 34.485-76.875 76.875s34.487 76.875 76.875 76.875 76.875-34.485 76.875-76.875-34.487-76.875-76.875-76.875zM281.875 243.3c-14.129 0-25.625-11.496-25.625-25.625s11.496-25.625 25.625-25.625 25.625 11.496 25.625 25.625-11.496 25.625-25.625 25.625zM281.875 345.8c-42.388 0-76.875 34.485-76.875 76.875s34.487 76.875 76.875 76.875 76.875-34.485 76.875-76.875-34.487-76.875-76.875-76.875zM281.875 448.3c-14.129 0-25.625-11.496-25.625-25.625s11.496-25.625 25.625-25.625 25.625 11.496 25.625 25.625-11.496 25.625-25.625 25.625zM281.875 550.8c-42.388 0-76.875 34.487-76.875 76.875s34.487 76.875 76.875 76.875 76.875-34.487 76.875-76.875-34.487-76.875-76.875-76.875zM281.875 653.3c-14.129 0-25.625-11.496-25.625-25.625s11.496-25.625 25.625-25.625 25.625 11.496 25.625 25.625-11.496 25.625-25.625 25.625zM691.876 550.8c-42.39 0-76.875 34.487-76.875 76.875s34.485 76.875 76.875 76.875 76.875-34.487 76.875-76.875-34.485-76.875-76.875-76.875zM691.876 653.3c-14.129 0-25.625-11.496-25.625-25.625s11.496-25.625 25.625-25.625 25.625 11.496 25.625 25.625-11.496 25.625-25.625 25.625zM691.876 345.8c-42.39 0-76.875 34.485-76.875 76.875s34.485 76.875 76.875 76.875 76.875-34.485 76.875-76.875-34.485-76.875-76.875-76.875zM691.876 448.3c-14.129 0-25.625-11.496-25.625-25.625s11.496-25.625 25.625-25.625 25.625 11.496 25.625 25.625-11.496 25.625-25.625 25.625zM691.876 140.8c-42.39 0-76.875 34.485-76.875 76.875s34.485 76.875 76.875 76.875 76.875-34.485 76.875-76.875-34.485-76.875-76.875-76.875zM691.876 243.3c-14.129 0-25.625-11.496-25.625-25.625s11.496-25.625 25.625-25.625 25.625 11.496 25.625 25.625-11.496 25.625-25.625 25.625zM794.376-12.95h-615.001c-70.648 0-128.125 57.477-128.125 128.125v615.001c0 70.648 57.477 128.125 128.125 128.125h615.001c70.648 0 128.125-57.477 128.125-128.125v-615.001c0-70.648-57.477-128.125-128.125-128.125zM179.375 807.051c-42.388 0-76.875-34.487-76.875-76.875v-615.001c0-42.39 34.487-76.875 76.875-76.875h615.001c42.39 0 76.875 34.485 76.875 76.875v615.001c0 42.388-34.485 76.875-76.875 76.875h-615.001z" />
<glyph unicode="&#xe813;" glyph-name="heart" data-tags="heart, love, like, favorite" d="M486.875-12.95c-4.287 0-8.574 1.075-12.446 3.225-4.813 2.673-119.204 66.689-235.352 171.544-68.71 62.031-123.588 125.486-163.103 188.602-50.414 80.522-75.975 160.872-75.975 238.817 0 148.363 120.7 269.063 269.063 269.063 50.222 0 103.563-18.823 150.198-53.004 27.278-19.993 50.491-44.086 67.615-69.674 17.124 25.59 40.338 49.683 67.616 69.674 46.635 34.18 99.976 53.004 150.197 53.004 148.363 0 269.063-120.7 269.063-269.063 0-77.945-25.563-158.296-75.975-238.817-39.517-63.116-94.393-126.57-163.103-188.602-116.147-104.856-230.539-168.871-235.352-171.544-3.871-2.151-8.158-3.225-12.446-3.225zM269.063 807.051c-120.103 0-217.813-97.709-217.813-217.813 0-155.776 120.42-297.367 221.44-388.718 90.219-81.584 181.617-138.794 214.185-158.196 32.568 19.403 123.966 76.613 214.185 158.196 101.021 91.35 221.44 232.941 221.44 388.718 0 120.103-97.711 217.813-217.813 217.813-87.272 0-172.024-71.795-193.503-136.229-3.488-10.463-13.28-17.521-24.31-17.521s-20.822 7.058-24.31 17.521c-21.477 64.434-106.229 136.229-193.503 136.229z" />
<glyph unicode="&#xe814;" glyph-name="star" data-tags="star, rating, favorite" d="M794.374-12.95c-4.209 0-8.43 1.035-12.27 3.129l-269.604 147.056-269.604-147.056c-8.606-4.696-19.137-4.065-27.124 1.615-7.989 5.683-12.034 15.425-10.423 25.094l49.082 294.494-195.674 195.676c-6.788 6.788-9.212 16.798-6.283 25.939s10.722 15.878 20.19 17.455l294.629 49.106 122.289 244.578c4.34 8.682 13.213 14.166 22.92 14.166s18.58-5.483 22.92-14.166l122.289-244.578 294.629-49.106c9.468-1.578 17.26-8.315 20.19-17.455s0.504-19.152-6.283-25.939l-195.674-195.676 49.082-294.494c1.612-9.668-2.436-19.411-10.423-25.094-4.423-3.147-9.63-4.744-14.855-4.744zM512.5 192.050c4.223 0 8.445-1.043 12.271-3.129l235.675-128.552-42.599 255.594c-1.361 8.163 1.303 16.48 7.157 22.331l169.792 169.792-258.383 43.064c-8.088 1.347-15.042 6.483-18.708 13.816l-105.205 210.41-105.205-210.41c-3.668-7.333-10.62-12.47-18.708-13.816l-258.383-43.064 169.79-169.792c5.852-5.851 8.517-14.169 7.157-22.331l-42.599-255.594 235.676 128.552c3.825 2.087 8.048 3.129 12.271 3.129z" />
<glyph unicode="&#xe815;" glyph-name="star-half" data-tags="star-half, rating" d="M794.374-12.95c-4.209 0-8.43 1.035-12.268 3.129l-153.745 83.86c-12.425 6.775-17.003 22.342-10.228 34.765 6.777 12.426 22.344 17.009 34.767 10.226l107.547-58.66-8.432 50.591c-2.327 13.961 7.105 27.163 21.063 29.49 13.955 2.332 27.163-7.103 29.49-21.063l17.084-102.5c1.613-9.67-2.436-19.413-10.423-25.095-4.422-3.147-9.628-4.744-14.853-4.744zM760.176 192.045c-12.302 0-23.157 8.884-25.246 21.418l-17.083 102.5c-1.361 8.163 1.303 16.48 7.157 22.331l51.25 51.25c10.007 10.007 26.232 10.007 36.238 0 10.008-10.007 10.008-26.232 0-36.238l-41.926-41.926 14.914-89.493c2.327-13.96-7.105-27.163-21.064-29.488-1.423-0.237-2.841-0.35-4.242-0.352zM896.876 448.3c-6.558 0-13.115 2.501-18.119 7.506-10.008 10.007-10.008 26.232 0 36.238l16.040 16.042-104.632 17.439c-13.961 2.327-23.391 15.529-21.064 29.49s15.548 23.391 29.488 21.064l153.75-25.625c9.468-1.578 17.26-8.315 20.19-17.455s0.504-19.152-6.283-25.939l-51.25-51.25c-5.005-5.008-11.561-7.509-18.12-7.509zM691.908 542.256c-1.399 0-2.817 0.115-4.242 0.352l-51.25 8.541c-8.088 1.347-15.042 6.483-18.708 13.815l-51.25 102.495c-6.329 12.658-1.199 28.051 11.459 34.38 12.655 6.329 28.051 1.198 34.38-11.459l45.414-90.825 38.378-6.396c13.961-2.327 23.391-15.529 21.064-29.49-2.087-12.53-12.946-21.413-25.244-21.413zM230.627-12.95c-5.226 0-10.431 1.597-14.857 4.744-7.989 5.683-12.034 15.425-10.423 25.094l49.082 294.494-195.673 195.676c-6.788 6.788-9.212 16.798-6.283 25.939s10.72 15.878 20.19 17.455l294.629 49.106 122.289 244.578c4.34 8.682 13.215 14.166 22.92 14.166 0 0 0 0 0 0 9.707 0 18.58-5.483 22.92-14.166l25.625-51.25c6.328-12.658 1.196-28.051-11.461-34.38-12.658-6.331-28.051-1.199-34.381 11.461l-2.704 5.408-105.204-210.408c-3.668-7.333-10.62-12.47-18.708-13.816l-258.385-43.064 169.792-169.792c5.852-5.851 8.517-14.169 7.156-22.331l-42.599-255.594 235.676 128.552c7.649 4.174 16.891 4.17 24.542 0l25.628-13.98c12.423-6.777 17.001-22.342 10.224-34.767-6.777-12.423-22.34-17.001-34.767-10.224l-13.357 7.285-269.604-147.056c-3.839-2.095-8.061-3.129-12.27-3.129z" />
<glyph unicode="&#xe816;" glyph-name="star-empty" data-tags="star-empty, rating" d="M281.845 533.714c-12.302 0-23.157 8.883-25.246 21.416-2.327 13.96 7.105 27.163 21.064 29.49l89.629 14.938 19.789 39.578c6.329 12.658 21.722 17.79 34.38 11.461s17.788-21.722 11.461-34.38l-25.625-51.25c-3.668-7.333-10.62-12.47-18.708-13.816l-102.5-17.084c-1.425-0.237-2.845-0.352-4.242-0.352zM128.125 448.3c-6.558 0-13.115 2.501-18.119 7.506l-51.25 51.25c-6.788 6.788-9.212 16.798-6.283 25.939s10.72 15.878 20.19 17.455l102.5 17.084c13.971 2.328 27.163-7.106 29.49-21.064 2.327-13.96-7.105-27.163-21.064-29.49l-53.383-8.899 16.040-16.042c10.008-10.007 10.008-26.232 0-36.238-5.005-5.002-11.561-7.503-18.12-7.503zM760.176 192.045c-12.302 0-23.157 8.884-25.246 21.418l-17.083 102.5c-1.361 8.163 1.303 16.48 7.157 22.331l51.25 51.25c10.007 10.007 26.232 10.007 36.238 0 10.008-10.007 10.008-26.232 0-36.238l-41.926-41.926 14.914-89.493c2.327-13.96-7.105-27.163-21.064-29.488-1.423-0.237-2.841-0.352-4.242-0.352zM794.374-12.95c-4.209 0-8.43 1.035-12.268 3.129l-153.756 83.866c-12.425 6.775-17.003 22.342-10.226 34.765 6.773 12.426 22.342 17.007 34.765 10.226l107.558-58.667-8.432 50.591c-2.327 13.961 7.105 27.163 21.063 29.49 13.969 2.324 27.163-7.103 29.49-21.063l17.084-102.5c1.612-9.67-2.436-19.413-10.423-25.095-4.422-3.147-9.628-4.744-14.853-4.744zM273.365 243.295c-1.399 0-2.817 0.115-4.242 0.354-13.96 2.327-23.389 15.529-21.064 29.49l6.374 38.242-41.926 41.926c-10.008 10.007-10.008 26.232 0 36.238s26.232 10.007 36.238 0l51.25-51.25c5.852-5.851 8.517-14.169 7.157-22.332l-8.541-51.25c-2.090-12.534-12.947-21.418-25.247-21.418zM230.627-12.95c-5.226 0-10.431 1.597-14.857 4.744-7.989 5.683-12.034 15.425-10.423 25.094l25.625 153.748c2.327 13.961 15.529 23.391 29.49 21.064 13.96-2.325 23.389-15.529 21.064-29.488l-16.974-101.841 56.301 30.71c12.422 6.778 27.99 2.199 34.767-10.224 6.777-12.425 2.199-27.99-10.226-34.767l-102.5-55.909c-3.838-2.095-8.059-3.129-12.268-3.129zM435.647 98.863c-9.076 0-17.867 4.832-22.52 13.36-6.777 12.423-2.199 27.99 10.226 34.765l76.875 41.932c7.647 4.172 16.891 4.172 24.541 0l25.62-13.976c12.425-6.775 17.003-22.342 10.226-34.765-6.773-12.426-22.342-17.007-34.765-10.226l-13.351 7.281-64.604-35.237c-3.897-2.125-8.102-3.134-12.249-3.134zM896.876 448.3c-6.558 0-13.115 2.501-18.119 7.506-10.008 10.007-10.008 26.232 0 36.238l16.040 16.042-104.632 17.439c-13.961 2.327-23.391 15.529-21.064 29.49s15.548 23.391 29.488 21.064l153.75-25.625c9.468-1.578 17.26-8.315 20.19-17.455s0.504-19.152-6.283-25.939l-51.25-51.25c-5.005-5.008-11.561-7.509-18.12-7.509zM691.91 542.254c-1.399 0-2.819 0.115-4.244 0.352l-51.252 8.541c-8.086 1.347-15.041 6.483-18.706 13.815l-51.25 102.495c-6.329 12.658-1.199 28.051 11.459 34.38 12.655 6.329 28.051 1.198 34.38-11.459l45.414-90.825 38.381-6.396c13.96-2.327 23.389-15.529 21.063-29.49-2.088-12.53-12.946-21.413-25.244-21.413zM461.229 704.546c-3.85 0-7.762 0.871-11.44 2.71-12.658 6.329-17.788 21.722-11.461 34.38l51.25 102.5c4.342 8.682 13.216 14.166 22.921 14.166 0 0 0 0 0 0 9.707 0 18.58-5.483 22.92-14.166l25.623-51.25c6.329-12.658 1.198-28.051-11.459-34.38-12.658-6.331-28.051-1.199-34.38 11.461l-2.705 5.408-28.329-56.658c-4.49-8.98-13.543-14.171-22.942-14.171z" />
<glyph unicode="&#xe817;" glyph-name="flag" data-tags="flag, report, mark" d="M76.875-12.95c-14.152 0-25.625 11.472-25.625 25.625v768.751c0 14.152 11.473 25.625 25.625 25.625s25.625-11.473 25.625-25.625v-768.751c0-14.153-11.473-25.625-25.625-25.625zM179.356 448.298c-5.351 0-10.744 1.669-15.356 5.127-11.321 8.491-13.616 24.554-5.125 35.873 3.453 4.604 85.873 112.75 199.875 112.75 86.8 0 144.179-30.696 194.804-57.778 44.857-23.996 83.597-44.721 138.321-44.721 112.356 0 192.577 106.594 238.326 190.53-35.771-20.337-81.491-36.78-135.826-36.78-113.115 0-171.557 58.443-223.119 110.006-50.975 50.972-94.995 94.994-186.882 94.994-113.994 0-183.809-91.327-184.5-92.25-8.491-11.321-24.554-13.616-35.875-5.125s-13.616 24.554-5.125 35.875c3.453 4.604 86.164 112.75 225.5 112.75 113.113 0 171.557-58.443 223.119-110.006 50.975-50.972 94.997-94.994 186.882-94.994 113.994 0 183.809 91.327 184.5 92.25 7.541 10.053 21.259 13.154 32.394 7.322 11.133-5.833 16.39-18.879 12.417-30.801-1.091-3.272-27.315-81.037-79.864-159.86-31.372-47.057-65.702-84.737-102.041-111.989-47.043-35.282-97.479-53.172-149.906-53.172-67.57 0-115.828 25.815-162.497 50.783-49.718 26.596-96.676 51.718-170.629 51.718-88.663 0-158.183-91.327-158.875-92.25-5.034-6.713-12.729-10.252-20.519-10.252z" />
<glyph unicode="&#xe818;" glyph-name="envelope" data-tags="envelope, mail, letter, email" d="M896.876 653.3h-820.001c-42.388 0-76.875-34.487-76.875-76.875v-461.25c0-42.39 34.487-76.875 76.875-76.875h820.001c42.39 0 76.875 34.485 76.875 76.875v461.25c0 42.388-34.485 76.875-76.875 76.875zM896.876 602.050c1.515 0 2.993-0.158 4.438-0.411l-386.009-257.341c-14.877-9.917-41.979-9.917-56.858 0l-386.011 257.341c1.444 0.253 2.923 0.411 4.438 0.411h820.001zM896.876 89.55h-820.001c-14.129 0-25.625 11.496-25.625 25.625v438.995l378.77-252.514c15.941-10.628 36.399-15.941 56.856-15.941s40.917 5.312 56.858 15.941l378.768 252.514v-438.995c0-14.129-11.496-25.625-25.625-25.625z" />
<glyph unicode="&#xe819;" glyph-name="paperclip" data-tags="paperclip, attachment" d="M486.875-64.2c-127.167 0-230.625 103.458-230.625 230.625v615.001c0 98.908 80.468 179.375 179.375 179.375s179.375-80.468 179.375-179.375v-563.751c0-70.648-57.477-128.125-128.125-128.125s-128.125 57.477-128.125 128.125v307.5c0 14.152 11.473 25.625 25.625 25.625s25.625-11.473 25.625-25.625v-307.5c0-42.39 34.487-76.875 76.875-76.875 42.39 0 76.875 34.485 76.875 76.875v563.751c0 70.648-57.477 128.125-128.125 128.125s-128.125-57.477-128.125-128.125v-615.001c0-98.908 80.468-179.375 179.375-179.375s179.375 80.468 179.375 179.375v358.75c0 14.152 11.472 25.625 25.625 25.625s25.625-11.473 25.625-25.625v-358.75c0-127.167-103.458-230.625-230.625-230.625z" />
<glyph unicode="&#xe81a;" glyph-name="inbox" data-tags="inbox, drawer" d="M1002.31 428.649l-138.292 316.095c-15.287 34.94-57.131 62.307-95.267 62.307h-512.5c-38.136 0-79.982-27.368-95.269-62.307l-138.292-316.095c-12.722-29.084-22.689-76.733-22.689-108.474v-205c0-42.39 34.487-76.875 76.875-76.875h871.251c42.39 0 76.875 34.485 76.875 76.875v205c0 31.745-9.968 79.392-22.691 108.474zM207.936 724.202c7.234 16.538 30.264 31.599 48.314 31.599h512.5c18.052 0 41.078-15.061 48.316-31.599l138.292-316.095c1.559-3.561 3.085-7.597 4.551-11.962-3.844 0.596-7.778 0.905-11.785 0.905h-307.5c-14.153 0-25.625-11.472-25.625-25.625v-25.625c0-56.519-45.981-102.5-102.5-102.5s-102.5 45.981-102.5 102.5v25.625c0 14.153-11.473 25.625-25.625 25.625h-307.5c-4.006 0-7.941-0.309-11.783-0.903 1.467 4.364 2.995 8.4 4.551 11.962l138.292 316.093zM973.751 115.175c0-14.129-11.496-25.625-25.625-25.625h-871.251c-14.129 0-25.625 11.496-25.625 25.625v205c0 14.129 11.496 25.625 25.625 25.625h281.875c0-84.779 68.971-153.75 153.75-153.75s153.75 68.971 153.75 153.75h281.875c14.129 0 25.625-11.496 25.625-25.625v-205z" />
<glyph unicode="&#xe81b;" glyph-name="eye" data-tags="eye, vision, view" d="M1018.424 439.818c-2.431 2.701-60.574 66.891-151.497 131.835-53.639 38.314-107.604 68.893-160.391 90.889-66.902 27.875-132.185 42.009-194.035 42.009s-127.134-14.134-194.035-42.011c-52.788-21.994-106.75-52.574-160.391-90.889-90.921-64.941-149.066-129.132-151.497-131.833-8.772-9.746-8.772-24.539 0-34.284 2.431-2.702 60.576-66.892 151.497-131.836 53.639-38.314 107.603-68.894 160.391-90.889 66.902-27.875 132.185-42.009 194.035-42.009s127.134 14.134 194.035 42.009c52.786 21.994 106.749 52.574 160.391 90.889 90.923 64.943 149.066 129.134 151.497 131.835 8.771 9.746 8.771 24.541 0 34.286zM644.418 630.836c46.503-39.112 73.082-96.017 73.082-156.91 0-113.036-91.964-205-205-205-113.038 0-205 91.964-205 205 0 60.894 26.58 117.8 73.085 156.91 42.148 13.757 86.687 22.465 131.915 22.465 45.23 0 89.77-8.708 131.918-22.465zM836.235 314.757c-78.565-55.98-198.503-122.707-323.734-122.707s-245.169 66.727-323.732 122.707c-59.298 42.251-104.676 84.973-127.583 107.918 22.91 22.95 68.289 65.67 127.583 107.918 27.157 19.35 59.258 39.981 94.813 58.7-17.783-35.258-27.331-74.593-27.331-115.369 0-141.298 114.954-256.25 256.25-256.25 141.298 0 256.25 114.952 256.25 256.25 0 40.774-9.547 80.11-27.328 115.369 35.552-18.719 67.655-39.35 94.811-58.7 59.296-42.251 104.675-84.973 127.581-107.918-22.91-22.95-68.289-65.67-127.581-107.918z" />
<glyph unicode="&#xe81c;" glyph-name="printer" data-tags="printer, print" d="M948.126 755.801h-76.875v128.125c0 42.388-34.487 76.875-76.875 76.875h-563.751c-42.388 0-76.875-34.487-76.875-76.875v-128.125h-76.875c-42.388 0-76.875-34.487-76.875-76.875v-461.25c0-42.39 34.487-76.875 76.875-76.875h76.875v-128.125c0-42.388 34.487-76.875 76.875-76.875h563.751c42.388 0 76.875 34.487 76.875 76.875v128.125h76.875c42.39 0 76.875 34.485 76.875 76.875v461.25c0 42.388-34.485 76.875-76.875 76.875zM205 883.926c0 14.129 11.496 25.625 25.625 25.625h563.751c14.129 0 25.625-11.496 25.625-25.625v-128.125h-615.001v128.125zM794.376-12.95h-563.751c-14.129 0-25.625 11.496-25.625 25.625v333.125h615.001v-333.125c0-14.129-11.496-25.625-25.625-25.625zM973.751 217.675c0-14.129-11.496-25.625-25.625-25.625h-76.875v153.75h25.625c14.153 0 25.625 11.472 25.625 25.625s-11.472 25.625-25.625 25.625h-768.751c-14.152 0-25.625-11.472-25.625-25.625s11.473-25.625 25.625-25.625h25.625v-153.75h-76.875c-14.129 0-25.625 11.496-25.625 25.625v461.25c0 14.129 11.496 25.625 25.625 25.625h871.251c14.129 0 25.625-11.496 25.625-25.625v-461.25zM743.126 243.3h-461.25c-14.152 0-25.625 11.472-25.625 25.625s11.473 25.625 25.625 25.625h461.25c14.153 0 25.625-11.472 25.625-25.625s-11.472-25.625-25.625-25.625zM743.126 140.8h-461.25c-14.152 0-25.625 11.472-25.625 25.625s11.473 25.625 25.625 25.625h461.25c14.153 0 25.625-11.472 25.625-25.625s-11.472-25.625-25.625-25.625zM743.126 38.3h-461.25c-14.152 0-25.625 11.472-25.625 25.625s11.473 25.625 25.625 25.625h461.25c14.153 0 25.625-11.472 25.625-25.625s-11.472-25.625-25.625-25.625zM845.626 499.55c-42.39 0-76.875 34.487-76.875 76.875s34.485 76.875 76.875 76.875 76.875-34.487 76.875-76.875-34.485-76.875-76.875-76.875zM845.626 602.050c-14.129 0-25.625-11.496-25.625-25.625s11.496-25.625 25.625-25.625 25.625 11.496 25.625 25.625-11.496 25.625-25.625 25.625z" />
<glyph unicode="&#xe81d;" glyph-name="file-empty" data-tags="file-empty, file, paper, new" d="M914.995 671.419l-230.625 230.625c-4.805 4.807-11.323 7.506-18.119 7.506h-486.875c-42.388 0-76.875-34.487-76.875-76.875v-820.001c0-42.39 34.487-76.875 76.875-76.875h666.251c42.39 0 76.875 34.485 76.875 76.875v640.626c0 6.797-2.701 13.314-7.506 18.119zM860.637 653.3h-168.762c-14.129 0-25.625 11.496-25.625 25.625v168.762l194.387-194.387zM871.251 12.675c0-14.129-11.496-25.625-25.625-25.625h-666.251c-14.129 0-25.625 11.496-25.625 25.625v820.001c0 14.129 11.496 25.625 25.625 25.625h435.625v-179.375c0-42.388 34.485-76.875 76.875-76.875h179.375v-589.376z" />
<glyph unicode="&#xe81e;" glyph-name="file-add" data-tags="file-add, file" d="M914.995 671.419l-230.625 230.625c-4.805 4.807-11.323 7.506-18.119 7.506h-486.875c-42.388 0-76.875-34.487-76.875-76.875v-820.001c0-42.39 34.487-76.875 76.875-76.875h666.251c42.39 0 76.875 34.485 76.875 76.875v640.626c0 6.797-2.701 13.314-7.506 18.119zM860.637 653.3h-168.762c-14.129 0-25.625 11.496-25.625 25.625v168.762l194.387-194.387zM845.626-12.95h-666.251c-14.129 0-25.625 11.496-25.625 25.625v820.001c0 14.129 11.496 25.625 25.625 25.625h435.625v-179.375c0-42.388 34.485-76.875 76.875-76.875h179.375v-589.376c0-14.129-11.496-25.625-25.625-25.625zM589.376 294.55h-128.125v128.125c0 14.153-11.473 25.625-25.625 25.625s-25.625-11.472-25.625-25.625v-128.125h-128.125c-14.152 0-25.625-11.472-25.625-25.625s11.473-25.625 25.625-25.625h128.125v-128.125c0-14.153 11.473-25.625 25.625-25.625s25.625 11.472 25.625 25.625v128.125h128.125c14.153 0 25.625 11.472 25.625 25.625s-11.472 25.625-25.625 25.625z" />
<glyph unicode="&#xe81f;" glyph-name="enter" data-tags="enter, door, sign-in, log-in, login" d="M896.876 858.301h-461.25c-42.388 0-76.875-34.487-76.875-76.875v-153.75c0-14.152 11.473-25.625 25.625-25.625s25.625 11.473 25.625 25.625v153.75c0 14.129 11.496 25.625 25.625 25.625h387.657l-196.894-84.383c-35.122-15.053-62.637-56.778-62.637-94.992v-486.875h-128.125c-14.129 0-25.625 11.496-25.625 25.625v153.75c0 14.153-11.473 25.625-25.625 25.625s-25.625-11.472-25.625-25.625v-153.75c0-42.388 34.487-76.875 76.875-76.875h128.125v-76.875c0-22.203 9.243-41.030 25.356-51.656 8.895-5.867 19.262-8.823 30.2-8.823 8.876 0 18.127 1.948 27.269 5.865l264.535 113.372c35.125 15.053 62.64 56.778 62.64 94.994v615.001c0 42.388-34.485 76.875-76.875 76.875zM922.501 166.425c0-17.981-15.050-40.805-31.577-47.885l-264.535-113.372c-4.917-2.109-8.171-1.957-9.071-1.364-0.895 0.591-2.317 3.521-2.317 8.871v615.001c0 17.98 15.050 40.803 31.577 47.885l273.31 117.133c1.674-3.403 2.614-7.228 2.614-11.269v-615.001zM428.119 492.044l-153.75 153.75c-10.007 10.008-26.232 10.008-36.238 0s-10.008-26.232 0-36.238l110.006-110.005h-322.512c-14.152 0-25.625-11.473-25.625-25.625s11.473-25.625 25.625-25.625h322.512l-110.005-110.006c-10.008-10.007-10.008-26.232 0-36.238 5.003-5.003 11.56-7.505 18.119-7.505s13.115 2.501 18.119 7.506l153.75 153.75c10.008 10.007 10.008 26.231 0 36.237z" />
<glyph unicode="&#xe820;" glyph-name="exit" data-tags="exit, door, sign-out, log-out, logout" d="M589.376 550.8c14.153 0 25.625 11.473 25.625 25.625v205c0 42.388-34.485 76.875-76.875 76.875h-461.25c-42.388 0-76.875-34.487-76.875-76.875v-615.001c0-38.215 27.515-79.94 62.637-94.992l264.536-113.373c9.143-3.919 18.391-5.865 27.267-5.865 10.937 0.002 21.309 2.958 30.202 8.823 16.115 10.626 25.358 29.455 25.358 51.656v76.875h128.125c42.39 0 76.875 34.485 76.875 76.875v205c0 14.153-11.472 25.625-25.625 25.625s-25.625-11.472-25.625-25.625v-205c0-14.129-11.496-25.625-25.625-25.625h-128.125v486.875c0 38.213-27.515 79.939-62.637 94.992l-196.894 84.383h387.657c14.129 0 25.625-11.496 25.625-25.625v-205c0-14.152 11.472-25.625 25.625-25.625zM327.174 675.56c16.526-7.082 31.577-29.906 31.577-47.885v-615.001c0-5.349-1.422-8.28-2.319-8.871-0.899-0.59-4.154-0.743-9.070 1.363l-264.536 113.373c-16.525 7.081-31.575 29.904-31.575 47.885v615.001c0 4.041 0.94 7.867 2.614 11.269l273.31-117.133zM940.62 492.044l-153.75 153.75c-10.007 10.008-26.232 10.008-36.238 0-10.008-10.007-10.008-26.232 0-36.238l110.006-110.005h-322.512c-14.153 0-25.625-11.473-25.625-25.625s11.472-25.625 25.625-25.625h322.512l-110.006-110.006c-10.008-10.007-10.008-26.232 0-36.238 5.005-5.003 11.561-7.505 18.12-7.505s13.115 2.501 18.119 7.506l153.75 153.75c10.008 10.007 10.008 26.231 0 36.237z" />
<glyph unicode="&#xe821;" glyph-name="graduation-hat" data-tags="graduation-hat, education, university, college, school" d="M956.23 600.735l-461.25 153.75c-5.259 1.754-10.947 1.754-16.206 0l-461.25-153.75c-10.464-3.488-17.523-13.28-17.523-24.31s7.058-20.822 17.521-24.31l136.229-45.409v-135.281c0-6.796 2.701-13.314 7.506-18.119 4.49-4.492 112.456-110.006 325.619-110.006 77.53 0 149.858 13.955 214.976 41.475 13.037 5.509 19.137 20.543 13.629 33.58-5.509 13.037-20.545 19.136-33.58 13.629-58.771-24.84-124.387-37.434-195.025-37.434-99.683 0-173.009 25.806-216.97 47.456-32.562 16.035-54.312 32.234-64.905 40.966v106.651l273.771-91.257c2.63-0.878 5.367-1.315 8.104-1.315s5.472 0.437 8.104 1.315l273.771 91.257v-45.731c-29.826-10.578-51.25-39.062-51.25-72.468 0-31.3 18.81-58.27 45.711-70.25l-44.945-179.786c-1.912-7.655-0.194-15.765 4.663-21.986s12.306-9.855 20.198-9.855h102.5c7.891 0 15.341 3.636 20.198 9.855s6.574 14.329 4.663 21.986l-44.945 179.786c26.9 11.98 45.711 38.95 45.711 70.25 0 33.406-21.424 61.889-51.25 72.468v62.813l136.229 45.41c10.463 3.486 17.521 13.279 17.521 24.309s-7.058 20.822-17.521 24.31zM794.376 397.050c14.129 0 25.625-11.496 25.625-25.625s-11.496-25.625-25.625-25.625-25.625 11.496-25.625 25.625 11.496 25.625 25.625 25.625zM775.945 140.8l18.431 73.72 18.431-73.72h-36.862zM792.31 551.499l-301.222 50.204c-13.966 2.324-27.163-7.106-29.49-21.063-2.327-13.961 7.105-27.165 21.064-29.49l205.734-34.289-201.52-67.176-380.217 126.74 380.217 126.74 380.216-126.74-74.782-24.926z" />
<glyph unicode="&#xe822;" glyph-name="license" data-tags="license, certificate" d="M948.126 38.3h-871.251c-42.388 0-76.875 34.485-76.875 76.875v666.251c0 42.388 34.487 76.875 76.875 76.875h871.251c42.39 0 76.875-34.487 76.875-76.875v-666.251c0-42.39-34.485-76.875-76.875-76.875zM76.875 807.051c-14.129 0-25.625-11.496-25.625-25.625v-666.251c0-14.129 11.496-25.625 25.625-25.625h871.251c14.129 0 25.625 11.496 25.625 25.625v666.251c0 14.129-11.496 25.625-25.625 25.625h-871.251zM486.875 653.3h-307.5c-14.152 0-25.625 11.473-25.625 25.625s11.473 25.625 25.625 25.625h307.5c14.152 0 25.625-11.473 25.625-25.625s-11.473-25.625-25.625-25.625zM486.875 499.55h-307.5c-14.152 0-25.625 11.472-25.625 25.625s11.473 25.625 25.625 25.625h307.5c14.152 0 25.625-11.472 25.625-25.625s-11.473-25.625-25.625-25.625zM486.875 397.050h-307.5c-14.152 0-25.625 11.472-25.625 25.625s11.473 25.625 25.625 25.625h307.5c14.152 0 25.625-11.472 25.625-25.625s-11.473-25.625-25.625-25.625zM486.875 294.55h-307.5c-14.152 0-25.625 11.472-25.625 25.625s11.473 25.625 25.625 25.625h307.5c14.152 0 25.625-11.472 25.625-25.625s-11.473-25.625-25.625-25.625zM435.625 192.050h-256.25c-14.152 0-25.625 11.472-25.625 25.625s11.473 25.625 25.625 25.625h256.25c14.152 0 25.625-11.472 25.625-25.625s-11.473-25.625-25.625-25.625zM919.575 625.43l-41.687 30.288-15.925 49.005h-51.525l-41.687 30.288-41.686-30.288h-51.525l-15.925-49.005-41.687-30.288 15.925-49.005-15.925-49.005 41.687-30.289 6.759-20.794c-0.077-0.795-0.123-1.599-0.123-2.412v-256.25c0-10.365 6.243-19.709 15.818-23.674 9.577-3.969 20.598-1.772 27.926 5.555l58.755 58.755 58.756-58.756c4.903-4.904 11.454-7.508 18.125-7.506 3.301 0 6.63 0.638 9.8 1.951 9.575 3.967 15.818 13.311 15.818 23.676v256.25c0 0.814-0.046 1.618-0.122 2.412l6.759 20.794 41.687 30.289-15.926 49.005 15.926 49.005zM678.176 605.854l25.034 18.188 9.563 29.429h30.942l25.035 18.191 25.035-18.189h30.942l9.563-29.429 25.034-18.188-9.563-29.431 9.563-29.429-25.034-18.189-9.563-29.429h-30.942l-25.035-18.191-25.035 18.189h-30.942l-9.563 29.429-25.034 18.189 9.563 29.431-9.563 29.429zM786.869 312.669c-10.007 10.007-26.232 10.007-36.238 0l-33.13-33.13v168.591h9.564l41.686-30.288 41.686 30.286h9.564v-168.591l-33.131 33.131z" />
<glyph unicode="&#xe823;" glyph-name="music-note" data-tags="music-note, music, song, audio" d="M1015.795 903.599c-5.832 4.869-13.522 6.898-21.003 5.538l-563.751-102.5c-12.185-2.215-21.042-12.829-21.042-25.212v-584.203c-6.993 4.727-14.643 9.19-22.958 13.349-42.207 21.106-97.757 32.728-156.417 32.728s-114.21-11.622-156.417-32.728c-47.853-23.925-74.208-57.805-74.208-95.397s26.356-71.472 74.208-95.397c42.207-21.106 97.757-32.728 156.417-32.728s114.21 11.622 156.417 32.728c47.853 23.925 74.208 57.805 74.208 95.397v516.799l512.5 94.641v-426.892c-6.991 4.727-14.643 9.191-22.958 13.349-42.207 21.106-97.757 32.728-156.417 32.728s-114.21-11.622-156.417-32.728c-47.855-23.925-74.208-57.805-74.208-95.397s26.354-71.472 74.208-95.397c42.207-21.106 97.757-32.728 156.417-32.728s114.21 11.622 156.417 32.728c47.855 23.925 74.208 57.805 74.208 95.397v666.251c0 7.597-3.371 14.804-9.206 19.673zM230.625 38.3c-102.663 0-179.375 40.587-179.375 76.875s76.712 76.875 179.375 76.875 179.375-40.587 179.375-76.875-76.712-76.875-179.375-76.875zM461.25 684.093v75.948l512.5 93.182v-74.489l-512.5-94.641zM794.376 140.8c-102.665 0-179.375 40.587-179.375 76.875s76.71 76.875 179.375 76.875c102.666 0 179.375-40.587 179.375-76.875s-76.709-76.875-179.375-76.875z" />
<glyph unicode="&#xe824;" glyph-name="film-play" data-tags="film-play, video, movie" d="M384.372 192.050c-3.906 0-7.83 0.892-11.456 2.705-8.682 4.34-14.166 13.213-14.166 22.92v461.25c0 9.707 5.483 18.58 14.166 22.92 8.678 4.338 19.070 3.403 26.834-2.42l307.5-230.625c6.452-4.839 10.25-12.434 10.25-20.5s-3.798-15.66-10.25-20.5l-307.5-230.625c-4.521-3.39-9.933-5.125-15.378-5.125zM410 627.675v-358.75l239.167 179.375-239.167 179.375zM999.376 858.301h-973.751c-14.152 0-25.625-11.473-25.625-25.625v-768.751c0-14.153 11.473-25.625 25.625-25.625h973.751c14.153 0 25.625 11.472 25.625 25.625v768.751c0 14.152-11.472 25.625-25.625 25.625zM153.75 397.050h-102.5v102.5h102.5v-102.5zM153.75 550.8h-102.5v102.5h102.5v-102.5zM51.25 345.8h102.5v-102.5h-102.5v102.5zM205 807.051h615.001v-717.501h-615.001v717.501zM871.251 499.55h102.5v-102.5h-102.5v102.5zM871.251 550.8v102.5h102.5v-102.5h-102.5zM871.251 345.8h102.5v-102.5h-102.5v102.5zM973.751 704.551h-102.5v102.5h102.5v-102.5zM153.75 807.051v-102.5h-102.5v102.5h102.5zM51.25 192.050h102.5v-102.5h-102.5v102.5zM871.251 89.55v102.5h102.5v-102.5h-102.5z" />
<glyph unicode="&#xe825;" glyph-name="camera-video" data-tags="camera-video, video" d="M980.453 86.816c-0.003 0-0.005 0-0.008 0-12.39 0.002-24.87 4.962-37.095 14.739l-176.21 140.97c-28.3 22.635-49.638 67.035-49.638 103.275v153.75c0 36.238 21.339 80.639 49.637 103.275l176.209 140.968c12.228 9.783 24.71 14.74 37.102 14.74 22.177 0.002 44.553-16.691 44.553-53.984v-563.751c0-14.248-3.278-26.223-9.743-35.593-8.064-11.686-20.75-18.391-34.805-18.391zM973.751 702.485l-174.598-139.678c-15.912-12.729-30.403-42.879-30.403-63.256v-153.75c0-20.378 14.491-50.527 30.401-63.256l174.6-139.678v559.619zM589.376 89.55h-512.5c-42.388 0-76.875 34.487-76.875 76.875v512.5c0 42.388 34.487 76.875 76.875 76.875h512.5c42.388 0 76.875-34.487 76.875-76.875v-512.5c0-42.388-34.487-76.875-76.875-76.875zM76.875 704.551c-14.129 0-25.625-11.496-25.625-25.625v-512.5c0-14.129 11.496-25.625 25.625-25.625h512.5c14.129 0 25.625 11.496 25.625 25.625v512.5c0 14.129-11.496 25.625-25.625 25.625h-512.5z" />
<glyph unicode="&#xe826;" glyph-name="camera" data-tags="camera, photo" d="M486.875 192.050c-127.167 0-230.625 103.458-230.625 230.625s103.458 230.625 230.625 230.625c127.167 0 230.625-103.458 230.625-230.625s-103.458-230.625-230.625-230.625zM486.875 602.050c-98.908 0-179.375-80.468-179.375-179.375s80.468-179.375 179.375-179.375 179.375 80.468 179.375 179.375-80.468 179.375-179.375 179.375zM896.876 38.3h-820.001c-42.388 0-76.875 34.485-76.875 76.875v512.5c0 42.388 34.487 76.875 76.875 76.875h76.875c21.267 0 54.331 13.695 69.37 28.734l30.021 30.021c24.938 24.939 70.341 43.745 105.609 43.745h256.25c35.269 0 80.673-18.807 105.609-43.745l30.021-30.019c15.039-15.041 48.103-28.735 69.37-28.735h76.875c42.39 0 76.875-34.487 76.875-76.875v-512.5c0-42.39-34.485-76.875-76.875-76.875zM76.875 653.3c-14.129 0-25.625-11.496-25.625-25.625v-512.5c0-14.129 11.496-25.625 25.625-25.625h820.001c14.129 0 25.625 11.496 25.625 25.625v512.5c0 14.129-11.496 25.625-25.625 25.625h-76.875c-35.269 0-80.673 18.807-105.609 43.745l-30.021 30.019c-15.039 15.041-48.103 28.735-69.37 28.735h-256.25c-21.267 0-54.331-13.695-69.37-28.734l-30.021-30.021c-24.938-24.939-70.341-43.745-105.609-43.745h-76.875z" />
</font>
</defs>
</svg>
